Чем дальше в лес… / Into the Woods (Роб Маршалл) [2014, США, Фэнтези, комедия, семейный, мюзикл, BDRip] [Лицензия] (Sub Rus)

Ответить на тему
 

RecobaZico ®

Стаж: 2 года 4 месяца

Сообщений: 22

Симпатии: 94

-Чем дальше в лес… / Into the Woods -Страна: США
Выпущено: США, Walt Disney Pictures, Lucamar Productions, Marc Platt Productions
Жанр: Фэнтези, комедия, семейный, мюзикл
Год выпуска: 2014
Продолжительность: 02:04:43-Перевод: Дублированный [Лицензия]
Cубтитры: русские
Режиссер: Роб Маршалл / Rob Marshall-В ролях: Мэрил Стрип, Эмили Блант, Джеймс Корден, Анна Кендрик, Крис Пайн, Джонни Депп, Дэниэл Хаттлстоун, Кристин Барански, Тэмми Бланчард, Люси Панч, Трэйси Уллмэн, Лилла Кроуфорд, Саймон Расселл Бил, Джоанна Райдинг-Описание: Золушка мечтает попасть на бал, Пекарь, когда-то проклятый Ведьмой, и его Жена горюют о том, что у них нет ребенка, Джек хочет, чтобы его корова Беляночка наконец-то дала молоко, его Мать мечтает быть богатой, а Красной Шапочке очень нужен каравай хлеба — гостинец для Бабушки, которая живет в лесу… и, может быть, немного сластей для себя лично. Наконец, Ведьма, живущая по соседству с Пекарем, мечтает вернуть себе молодость и красоту, которые она утратила по несчастному стечению обстоятельств. Для этого она предлагает Пекарю в обмен на снятие проклятия помочь ей и добыть необходимые составляющие для волшебного напитка: корову, белую, как молоко, плащ, красный как кровь, прядь волос, желтых, как кукуруза, и золотые туфельки…-Доп. информация:
 -Качество видео: BDRip исх. Into the Woods (2014) Blu-ray EUR 1080p AVC DD5.1 HDClub
Формат видео: AVI-Видео: XviD, 1221 Кбит/с, 720x304
Аудио: AC3, 6 ch, 448 Кбит/с
Формат субтитров: softsub (SRT)
Доп. информация о субтитрах: Русские (форсированные на песни)-

Знаете ли вы, что...

Для плетения шестиметровой косы из Германии были привезены настоящие волосы соответствующего цвета – тюк весом почти в 3 килограмма. Затем пряди волос были переплетены с очень прочным хлопком и вплетены в прическу Маккензи Мози. На каком-то этапе продюсеры предложили использовать акриловые волосы, но гример Питер Кинг был категорически против – он знал, что акрил на пленке будет выглядеть неестественно ярким.
Примерно 70% всего фильма снималось на гигантской «лесной» площадке в павильоне Н студии «Шеппертон», расположенной неподалеку от Лондона.
Мэттью Бродерик, Колин Фёрт, Эндрю Рэннеллс, Дэнис О’Хэйр, Джонни Депп и Джим Керри рассматривались на роль Пекаря.

MediaInfo

Location: D:\Рекоба2015\Into.the.Woods.2014.BDRip\Into.the.Woods.2014.BDRip.avi
Filename: Into.the.Woods.2014.BDRip.avi
File format: .avi (AVI)
File size: 1.46 GB
Duration: 2h 4mn
Navigate by chapters: Nope
Bitrate (all streams): 1 678 Kbps
...with: VirtualDubModRus 1.5.10.2 (build 2542/release)
...by using: VirtualDubMod build 2542/release
:
Title: Into.the.Woods.2014.BDRip
:
Stream type: Video
Duration: 02:04:45
Codec: MPEG-4 Visual
Codec Profile: Advanced [email protected]
Codec ID: XVID
Video Size: 720 x 304 (2.35:1)
Frame rate: 23.976 fps
Stream size: 1.06 GiB (73%)
Bitrate: 1 221 Kbps
Codec library: XviD 73
Colorspace: YUV
Scantype: Progressive
Bitdepth: 8 bits
:
Stream type: Audio #1
Duration: 02:04:45.615
Codec: AC-3
Codec ID: 2000
Samplerate: 48.0 KHz
Channels: 6 channels
Bitrate: 448 Kbps
Bitrate/Mode: Constant
Stream size: 400 MiB (27%)
Bitdepth: 16 bits
Compression mode: Lossy

Скриншот c названием фильма

Скриншоты


Создавать темы 30-Апр-2015 08:18

[Профиль]  [ЛС] 
Показать сообщения:    
Ответить на тему

Текущее время: 25-Сен 20:24

Часовой пояс: UTC + 5



Вы не можете начинать темы
Вы не можете отвечать на сообщения
Вы не можете редактировать свои сообщения
Вы не можете удалять свои сообщения
Вы не можете голосовать в опросах
Вы не можете прикреплять файлы к сообщениям
Вы не можете скачивать файлы