Банда Призраков / Gang of Ghosts (Сатиш Каушик / Satish Kaushik) [2014, Индия, Драма, комедия, Web.Rip] (DVO : DeadSno & den904)

Ответить на тему
 

Davron1402 ®

Стаж: 3 года 11 месяцев

Сообщений: 136

Симпатии: 122

Банда Призраков / Gang of Ghosts
Страна: Индия
Жанр: Драма, комедия
Год выпуска: 2014
Продолжительность: 02:02:30
Перевод: Любительский (двухголосый закадровый) DeadSno & den904
Cубтитры: нет
Режиссер: Сатиш Каушик / Satish Kaushik
В ролях: Шарман Джоши, Анупам Кхер, Махи Гилл, Манси Дешмукх, Саураб Шукла, Чанки Пандей, Джекки Шрофф, Асрани, Парамбрата Чаттерджи, Раджпал Ядав, Мира Чопра, Паоли Дам, Дж. Брэндон Хилл, Раджеш Кхаттар
Описание: Съёмочная команда приезжает в королевское поместье, где решает снять рекламный ролик. Там, команда встречает молодого и амбициозного писателя Раджу, который с нетерпением хочет поведать группе захватывающую историю про само поместье. Он утверждает, что в нём обитают призраки, которые организовали целую банду против застройщика Бхутерии, намеренного выселить их из родного дома...
Качество видео: Web.Rip
Формат видео: mp4 (MPEG-4)
Видео: AVC, 852 x 480 (16:9), 24.000 fps, 844 Kbps
Аудио: AAC, 44.1 KHz, 2 channels, 144 Kbps

MediaInfo

Расположение: D:\KINO\Banda.Prizrakov.2014.mp4
Имя файла: Banda.Prizrakov.2014.mp4
Формат файла: .mp4 (MPEG-4)
Размер файла: 870.56 MB
Длительность: 2h 2mn
Навигация по главам: Нет
Bitrate (все потоки): 993 Kbps
Тип битрейта (все потоки): Variable
Файл создан...: UTC 2015-04-30 10:10:04
...при помощи: Lavf51.12.1
Тип потока: Альбом
Тип потока: Видео
Длительность: 02:02:30
Кодек: AVC
Кодек/ID: avc1
Кодек/CABAC: No
Кодек/ReFrames: 1 frame
Размеры изображения: 852 x 480 (16:9)
Частота кадров: 24.000 fps
Размер потока: 740 MiB (85%)
Битрейт: 844 Kbps
Цветовое пространство: YUV
Тип развёртки: Progressive
Глубина: 8 bits
Тип потока: Звук #1
Длительность: 02:02:30.533
Кодек: AAC
Кодек/Профиль: LC
Кодек/ID: 40
Частота дискретизации: 44.1 KHz
Каналов: 2 channels
Битрейт: 144 Kbps
Битрейт/тип: Variable
Размер потока: 127 MiB (15%)
Метод сжатия: Lossy

Скриншот c названием фильма

Скриншоты








Последний раз редактировалось: Davron1402 (2015-04-30 20:06), всего редактировалось 1 раз

Создавать темы 30-Апр-2015 17:00

[Профиль]  [ЛС] 
Показать сообщения:    
Ответить на тему

Текущее время: 17-Дек 20:57

Часовой пояс: UTC + 5



Вы не можете начинать темы
Вы не можете отвечать на сообщения
Вы не можете редактировать свои сообщения
Вы не можете удалять свои сообщения
Вы не можете голосовать в опросах
Вы не можете прикреплять файлы к сообщениям
Вы не можете скачивать файлы