Гнездо дракона / Dragon Nest: Warriors' Dawn (Юэфэн Сонг) [2014, мультфильм, фэнтези, приключения, семейный , WEB-DL 1080p]

Ответить на тему
 

FireHowler ®

Стаж: 4 года 7 месяцев

Сообщений: 270

Симпатии: 153

Гнездо дракона / Dragon Nest: Warriors' Dawn
-Год выхода: 2014
Страна: США, Китай, Франция
Жанр: Мультфильм, фэнтези, приключения, семейный
Продолжительность: 01:41:51
Перевод: Дублированный [iTunes]
Субтитры: Отсутствуют-Режиссер: Юэфэн Сонг
В ролях: Цзяо Сюй, Гуаньлин Джи, Йинг Хуан, Давей Шен, Сянлонг Менг, Йе Сунь, Тиан Джин, Хон Шан, Цзытун Ся, Блайт Оффарт-Описание: Кто бы мог подумать, что всегда неуклюжий, но несомненно талантливый парень станет великим героем, который спасет свою красивейшую планету от пробудившегося зла?
Много лет, пока легендарный Черный дракон спал, земля Алтера хранила хрупкий мир между расами людей, эльфов и неведомых нашему миру животных. Когда же он пробудился, охваченные ужасом жители были вынуждены бежать сквозь остров в попытке найти спасение…
Наш герой Ламберт в компании своих пушистых компаньонов отправляется в путь полный веселых развлечений и приключений, встречая настоящих друзей и любовь в лице прекрасной эльфийской девочки. Объединившись, они находят тайную дорогу к пещере дракона, а юный воин выполняет возложенную на него важнейшую миссию: он входит в доверие к Черному Дракону, чтобы с честью и юмором выйти победителем.-Качество: WEB-DL 1080p
Формат: MKV
Видео: AVC, 4992 kb/s, 1920x1032,4 992 Kbps
Аудио: AC3, 384 kb/s (6 ch)-

Media Info

Video
ID : 1
Format : AVC
Format/Info : Advanced Video Codec
Format profile : [email protected]
Format settings, CABAC : Yes
Format settings, ReFrames : 4 frames
Codec ID : V_MPEG4/ISO/AVC
Duration : 1h 30mn
Bit rate : 4 992 Kbps
Width : 1 920 pixels
Height : 1 036 pixels
Display aspect ratio : 1.85:1
Frame rate mode : Constant
Frame rate : 24.000 fps
Color space : YUV
Chroma subsampling : 4:2:0
Bit depth : 8 bits
Scan type : Progressive
Bits/(Pixel*Frame) : 0.105
Stream size : 3.14 GiB (91%)
Language : English
Default : Yes
Forced : No
Color range : Limited
Color primaries : BT.709
Transfer characteristics : BT.709
Matrix coefficients : BT.709
Audio
ID : 2
Format : AC-3
Format/Info : Audio Coding 3
Mode extension : CM (complete main)
Format settings, Endianness : Big
Codec ID : A_AC3
Duration : 1h 30mn
Bit rate mode : Constant
Bit rate : 384 Kbps
Channel(s) : 6 channels
Channel positions : Front: L C R, Side: L R, LFE
Sampling rate : 48.0 KHz
Compression mode : Lossy
Stream size : 247 MiB (7%)
Language : Russian
Default : Yes
Forced : No

Скриншоты






Создавать темы 30-Апр-2015 22:03

[Профиль]  [ЛС] 
Показать сообщения:    
Ответить на тему

Текущее время: 17-Дек 20:58

Часовой пояс: UTC + 5



Вы не можете начинать темы
Вы не можете отвечать на сообщения
Вы не можете редактировать свои сообщения
Вы не можете удалять свои сообщения
Вы не можете голосовать в опросах
Вы не можете прикреплять файлы к сообщениям
Вы не можете скачивать файлы