Достоинство джентльмена / Истинный джентльмен / Gentleman's Dignity [20/20 + спешл] (Shin Woo-Cheol, Kwon Hyuk-Chan) [RUS(int)] [2012, Корея, романтическая комедия, TVRip] [720p]

Ответить на тему
 

bbk ®

Стаж: 7 лет

Сообщений: 435

Симпатии: 479

Достоинство джентльмена / Истинный джентльмен / Gentleman's Dignity- Страна: Южная Корея
Год выпуска: 2012
Жанр: романтическая комедия
Продолжительность: 20 серий по 60 мин
Перевод: Двухголосый (закадровый) GREEN TEA (Артём Зыза и Ульяна Громова)
Режиссер: Shin Woo-Cheo (Син У Чхоль), Kwon Hyuk-Chan (Квон Хёк Чхан)
В ролях: Чан Дон Гун, Ким Ха Ныль, Ким Су Ро, Ким Мин Чон, Ли Чжон Хёк, Юн Се А, Ким Юнг Нэн, Юн Джин И, Ким У Бин, Ли Чжон Хён, ...
Описание: Это история о четырёх мужчинах в самом расцвете сил - 40 лет, о дружбе, любви, карьере, взлётах и падениях.
 
Качество: TVRip
Формат: AVI
Видео: XviD, 1280х720, 29.970 fps, ~ 3000 Kbps
Аудио: RUS(int), MP3, 2ch, 48.0 KHz, 192 Kbps

MediaInfo

General
    Complete name : [GREEN TEA] А Gentleman's Dignity ep.01.avi
    Format : AVI
    Format/Info : Audio Video Interleave
    File size : 1.47 GiB
    Duration : 1h 5mn
    Overall bit rate : 3 226 Kbps
    Writing application : VirtualDubMod 1.5.10.2 (build 2540/release)
    Writing library : VirtualDubMod build 2540/release
  Video #0
    ID : 0
    Format : AVC
    Format/Info : Advanced Video Codec
    Format profile : [email protected]
    Format settings, CABAC : Yes
    Format settings, ReFrames : 6 frames
    Codec ID : H264
    Duration : 1h 5mn
    Bit rate : 3 023 Kbps
    Nominal bit rate : 2 429 Kbps
    Width : 1 280 pixels
    Height : 720 pixels
    Display aspect ratio : 16:9
    Frame rate : 29.970 fps
    Color space : YUV
    Chroma subsampling : 4:2:0
    Bit depth : 8 bits
    Scan type : Progressive
    Bits/(Pixel*Frame) : 0.109
    Stream size : 1.38 GiB (94%)
    Writing library : x264 core 115 r2008kMod 4c552d8
    Encoding settings : cabac=1 / ref=6 / deblock=1:0:0 / analyse=0x3:0x13 / me=umh / subme=7 / psy=1 / fade_compensate=0.00 / psy_rd=1.00:0.00 / mixed_ref=1 / me_range=16 / chroma_me=1 / trellis=1 / 8x8dct=1 / cqm=0 / deadzone=21,11 / fast_pskip=1 / chroma_qp_offset=-2 / threads=4 / sliced_threads=1 / slices=4 / nr=0 / decimate=1 / interlaced=0 / bluray_compat=0 / constrained_intra=0 / bframes=0 / weightp=2 / keyint=250 / keyint_min=25 / scenecut=40 / intra_refresh=0 / rc_lookahead=0 / rc=abr / mbtree=0 / bitrate=2429 / ratetol=1.0 / qcomp=0.60 / qpmin=10 / qpmax=51 / qpstep=4 / vbv_maxrate=3000 / vbv_bufsize=3000 / nal_hrd=none / ip_ratio=1.40 / aq=1:1.00
  Audio #1
    ID : 1
    Format : MPEG Audio
    Format version : Version 1
    Format profile : Layer 3
    Mode : Joint stereo
    Mode extension : MS Stereo
    Codec ID : 55
    Codec ID/Hint : MP3
    Duration : 1h 5mn
    Bit rate mode : Constant
    Bit rate : 192 Kbps
    Channel(s) : 2 channels
    Sampling rate : 48.0 KHz
    Compression mode : Lossy
    Stream size : 89.5 MiB (6%)
    Alignment : Aligned on interleaves
    Interleave, duration : 33 ms (1.00 video frame)
    Interleave, preload duration : 504 ms

Скриншоты



Последний раз редактировалось: bbk (2015-05-20 17:06), всего редактировалось 2 раз(а)

Создавать темы 01-Май-2015 00:45

[Профиль]  [ЛС] 

Топик был перенесен из форума Азиатские сериалы в форум Полные релизы
xxxxx

Создавать темы 01-Май-2015 01:17

 
Показать сообщения:    
Ответить на тему

Текущее время: 20-Ноя 09:00

Часовой пояс: UTC + 5



Вы не можете начинать темы
Вы не можете отвечать на сообщения
Вы не можете редактировать свои сообщения
Вы не можете удалять свои сообщения
Вы не можете голосовать в опросах
Вы не можете прикреплять файлы к сообщениям
Вы не можете скачивать файлы