49 Дней / 49 Days [Чо Ён Гван / Jo Young Kwang [20/20] [2011 г., фэнтези, романтика, мелодрама, DTVRip] [RAW] [360p] DVO GREEN TEA

Ответить на тему
 

bbk ®

Стаж: 7 лет

Сообщений: 435

Симпатии: 479

49 Дней / 49 il / 49 Days- Страна: Южная Корея
Год выпуска: 2011
Жанр: Фэнтези, романтика, мелодрама
Продолжительность: 20 серий по 60 мин
Перевод: Двухголосый (закадровый) GREEN TEA
Режиссер: Чо Ён Гван
В ролях: Ли Ё Вон, Гюри Нам, Чон Иль У, Юн Бон Гиль, Пэ Су Бин, Хён-чжэ Чжо
Описание: Что можно пожелать, еслы Вы молоды, у Вас достаточно денег, хорошая внешность да и свадьба на носу, и плюс ко всему - оптимистичный взгляд на мир? Син Чжи Хён так и жила. Самая большая проблема - это сломанный каблук, или пятно на платье. Но случается авария. Ты теряешь тело и свою жизнь. Что будет, если ты взглянешь на свою жизнь глазами другого человека? Глазами женщины, чья жизнь кончена после смерти возлюбленного. Сможешь ли найти тех, кто действительно любит тебя, а Син Чжи Хён?
(с) Морриган и Beatriche
 
Качество: HDTVRip
Формат: AVI
Видео: 624x352, 1500 Кбит/с, 29.970 fps
Аудио: 48 kHz, 192 Кбит/с, 2 канала

MediaInfo

General
    Unique ID : 172093368598736528021792816660402018854 (0x8177FA2890B8DBF2BF21B6F80C7A1A26)
    Complete name : [GREEN TEA] 49 дней 01.avi
    Format : Matroska
    Format version : Version 2
    File size : 696 MiB
    Duration : 1h 5mn
    Overall bit rate : 1 489 Kbps
    Encoded date : UTC 2012-02-18 19:49:30
    Writing application : mkvmerge v4.0.0 ('The Stars were mine') сборка от Jun  6 2010 16:18:42
    Writing library : libebml v1.0.0 + libmatroska v1.0.0
  Video #1
    ID : 1
    Format : MPEG-4 Visual
    Format profile : Advanced [email protected]
    Format settings, BVOP : Yes
    Format settings, QPel : No
    Format settings, GMC : No warppoints
    Format settings, Matrix : Default (H.263)
    Codec ID : V_MS/VFW/FOURCC / XVID
    Codec ID/Hint : XviD
    Duration : 1h 5mn
    Bit rate : 1 267 Kbps
    Width : 624 pixels
    Height : 352 pixels
    Display aspect ratio : 16:9
    Frame rate mode : Constant
    Frame rate : 29.970 fps
    Color space : YUV
    Chroma subsampling : 4:2:0
    Bit depth : 8 bits
    Scan type : Progressive
    Compression mode : Lossy
    Bits/(Pixel*Frame) : 0.192
    Stream size : 593 MiB (85%)
    Title : 49 Days
    Writing library : XviD 1.1.2 (UTC 2006-11-01)
    Language : Korean
    Default : No
    Forced : No
  Audio #2
    ID : 2
    Format : MPEG Audio
    Format version : Version 1
    Format profile : Layer 3
    Mode : Joint stereo
    Codec ID : A_MPEG/L3
    Codec ID/Hint : MP3
    Duration : 1h 5mn
    Bit rate mode : Constant
    Bit rate : 192 Kbps
    Channel(s) : 2 channels
    Sampling rate : 48.0 KHz
    Compression mode : Lossy
    Stream size : 89.8 MiB (13%)
    Title : 49 Days
    Language : Russian
    Default : Yes
    Forced : No

Скриншоты



Последний раз редактировалось: bbk (2015-05-20 17:06), всего редактировалось 2 раз(а)

Создавать темы 01-Май-2015 01:11

[Профиль]  [ЛС] 
Показать сообщения:    
Ответить на тему

Текущее время: 18-Ноя 09:49

Часовой пояс: UTC + 5



Вы не можете начинать темы
Вы не можете отвечать на сообщения
Вы не можете редактировать свои сообщения
Вы не можете удалять свои сообщения
Вы не можете голосовать в опросах
Вы не можете прикреплять файлы к сообщениям
Вы не можете скачивать файлы