Зажигая звёзды / Set Fire to the Stars (Энди Годдар / Andy Goddard) [2014, Великобритания, драма, HDRip] (MVO : iTunes)

Ответить на тему
 

RecobaZico ®

Стаж: 2 года 6 месяцев

Сообщений: 22

Симпатии: 94

-Зажигая звёзды / Set Fire to the Stars-Страна: Великобритания
Жанр: драма
Год выпуска: 2014
Продолжительность: 01:36:47-Перевод: Профессиональный (многоголосый закадровый) iTunes
Cубтитры: нет
Режиссер: Энди Годдар / Andy Goddard-В ролях: Элайджа Вуд, Селин Джонс, Келли Райлли, Стивен Макинтош, Ширли Хендерсон, Кевин Элдон, Стив Спайрс, Ричард Брэйк, Эндрю Бикнелл, Кейт Дрю-Описание: Действие происходит в далеких пятидесятых годах прошлого века в Нью-Йорке. Джон приглашает своего старого знакомого Томаса на литературные вечера, а также на проведение лекций, посвященных литературе. Каждый из них воспринимает мир по-своему. Джон, молодой человек, который хочет и старается в этой жизни чего-нибудь достичь. Для этого он прикладываем много сил и стараний. Он уже успел добиться определенного уровня в обществе. Встретил любимую девушку. Этот стиль жизни его вполне устраивает. Томас, по возрасту немного старше Джона. Но по способу жизни этого не скажешь. Томас любит свободную и вольную, и беззаботную жизнь. Часто поводит время в барах, любит выпить и подебоширить. Он к жизни относится намного проще своего друга. Из-за чего и возникают частые разногласия между ними. Но за легкомысленным способом жизни он скрывает совершено одинокого человека. Как же будут развиваться отношения между совершенно разными людьми, и смогут ли они прийти к общему согласию? Изменится ли жизнь Томаса?-Доп. информация:
 -Качество видео: HDRip
Формат видео: AVI-Видео: 720x304 (2.37:1), 24.000 fps, XviD build 50 ~1766 kbps avg, 0.34 bit/pixel
Аудио: 48 kHz, AC3 Dolby Digital, 3/2 (L,C,R,l,r) + LFE ch, ~384 kbps

MediaInfo

Общее
Полное имя :
Формат : AVI
Формат/Информация : Audio Video Interleave
Размер файла : 1,46 Гбайт
Продолжительность : 1 ч. 36 м.
Общий поток : 2160 Кбит/сек
Программа кодирования : VirtualDubMod 1.5.10.3 | www.virtualdub-fr.org || (build 2550/release)
Библиотека кодирования : VirtualDubMod build 2550/release
Видео
Идентификатор : 0
Формат : MPEG-4 Visual
Профиль формата : Advanced [email protected]
Параметр BVOP формата : 2
Параметр QPel формата : Нет
Параметр GMC формата : Без точки перехода
Параметр матрицы формата : Default (MPEG)
Идентификатор кодека : XVID
Идентификатор кодека/Подсказка : XviD
Продолжительность : 1 ч. 36 м.
Битрейт : 1767 Кбит/сек
Ширина : 720 пикселей
Высота : 304 пикселя
Соотношение сторон : 2,35:1
Частота кадров : 24,000 кадра/сек
Цветовое пространство : YUV
Субдискретизация насыщенности : 4:2:0
Битовая глубина : 8 бит
Тип развёртки : Прогрессивная
Метод сжатия : С потерями
Бит/(Пиксели*Кадры) : 0.336
Размер потока : 1,19 Гбайт (82%)
Библиотека кодирования : XviD 1.2.1 (UTC 2008-12-04)
Аудио
Идентификатор : 1
Формат : AC-3
Формат/Информация : Audio Coding 3
Расширение режима : CM (complete main)
Параметр Endianness формата : Big
Идентификатор кодека : 2000
Продолжительность : 1 ч. 36 м.
Вид битрейта : Постоянный
Битрейт : 384 Кбит/сек
Каналы : 6 каналов
Расположение каналов : Front: L C R, Side: L R, LFE
Частота : 48,0 КГц
Битовая глубина : 16 бит
Метод сжатия : С потерями
Размер потока : 266 Мбайт (18%)
Выравнивание : Разделение по промежуткам
Продолжительность промежутка : 42 мс. (1,00 видеокадр)
Время предзагрузки промежутка : 500 мс.

Скриншот c названием фильма

Скриншоты


Создавать темы 01-Май-2015 08:36

[Профиль]  [ЛС] 
Показать сообщения:    
Ответить на тему

Текущее время: 25-Ноя 07:04

Часовой пояс: UTC + 5



Вы не можете начинать темы
Вы не можете отвечать на сообщения
Вы не можете редактировать свои сообщения
Вы не можете удалять свои сообщения
Вы не можете голосовать в опросах
Вы не можете прикреплять файлы к сообщениям
Вы не можете скачивать файлы