Летят журавли (Михаил Калатозов) [1957, драма, DVDRip-AVC]

Ответить на тему
 

Jeneva ®

Стаж: 5 лет 9 месяцев

Сообщений: 47

Симпатии: 70

Летят журавли-- Год выпуска: 1957
Страна: СССР
Жанр: драма
Продолжительность: 01:32:18
Перевод: Не требуется--Режиссер: Михаил Калатозов--В ролях: Татьяна Самойлова, Алексей Баталов, Василий Меркурьев, Александр Шворин, Светлана Харитонова, Константин Никитин, Валентин Зубков, Антонина Богданова, Борис Коковкин, Екатерина Куприянова, Валентина Ананьина, Кларина Фролова, Леонид Князев, Даниил Нетребин, Александр Попов, Николай Сморчков, Галина Степанова, Валентина Владимирова, Любовь Соколова, Саша Попов
--Описание: Фильм с удивительной эмоциональной силой рассказывает о людях, в чьи судьбы безжалостно вторглась война. Не все смогли с честью вынести это испытание… В центре киноповести — трагическая история двух влюбленных, которых война разлучила навсегда…--Рейтинг КиноПоиска: 8.391 (28386)
Рейтинг IMDB: 8.20 (8880)
Возраст: 12+--Качество: DVDRip-AVC
Формат: MKV
Видео кодек: AVC
Аудио кодек: AC3
Видео: x264 ([email protected]); Анаморф [email protected]; Display aspect ratio: 1.381:1, 25.000 fps, 2496 Kbps
Аудио №1: AC-3; 16 bit 48 Khz; 6ch 448 Kbps; CBR
Аудио №2: AC-3; 16 bit 48 Khz; Mono 448 Kbps; CBR--

Награды


Почётный диплом на МКФ в Локарно, особая премия (поровну с фильмами «Высота» и «Дом, в котором я живу») на ВКФ в Москве — все в 1958 году, назван среди ста лучших фильмов мира по опросу ФИПРЕССИ в 1995 году
Британская академия, 1959 год
Номинации (2):
Лучший фильм
Лучшая иностранная актриса (Татьяна Самойлова)
Каннский кинофестиваль, 1958 год
Победитель (2):
Золотая пальмовая ветвь
Особое упоминание

Интересные факты


На фестивале в Каннах название фильма было переведено на французский язык, как «Когда прилетают аисты»… Всё дело в том что оригинальное название картины на французском слэнге означает «проститутки воруют».
На съёмках фильма в качестве ассистента оператора в течение двух дней работал молодой, никому не известный кинолюбитель из Франции, приехавший в Москву с туристической группой и случайно попавший на киностудию «Мосфильм». Впоследствии он стал известным кинорежиссёром. Его имя — Клод Лелуш.
Для съёмок сцены гибели Бориса Сергей Урусевский придумал и впервые сконструировал круговые операторские рельсы.
Фильм снят по пьесе Виктора Розова «Вечно живые».
Рабочее название картины — «За твою жизнь».
Веронику должна была играть Елена Добронравова. Ассистент Михаила Калатозова увидел Татьяну Самойлову в фильме «Мексиканец», после чего порекомендовал ее оператору Сергею Урусевскому, а тот уже режиссеру Калатозову.
Во время съемки эпизода, когда Вероника взбегает по лестнице в разгромленный бомбой дом родителей, Татьяна Самойлова, больная туберкулезом, упала в обморок.
Никита Хрущёв после просмотра фильма гневно его раскритиковал, назвав главную героиню «шлюхой».

MediaInfo

General
Unique ID : 215088894013343289245681953287417014656 (0xA1D09D3A264E8C928D2E9E9C5E3AA980)
Complete name : Летят журавли.1957.Jeneva.[TAS-IX.NET].mkv
Format : Matroska
Format version : Version 2
File size : 2.19 GiB
Duration : 1h 32mn
Overall bit rate : 3 392 Kbps
Movie name : «Летят журавли»
Encoded date : UTC 2013-11-22 11:35:35
Writing application : mkvmerge v5.8.0 ('No Sleep / Pillow') built on Sep 2 2012 15:37:04
Writing library : libebml v1.2.3 + libmatroska v1.3.0
Comment : DVDRip-AVC
Original date released : November 22nd 2013
Encoded by : imgeorgest®
Video
ID : 1
Format : AVC
Format/Info : Advanced Video Codec
Format profile : [email protected]
Format settings, CABAC : Yes
Format settings, ReFrames : 16 frames
Codec ID : V_MPEG4/ISO/AVC
Duration : 1h 32mn
Bit rate : 2 496 Kbps
Width : 720 pixels
Height : 556 pixels
Display aspect ratio : 1.381
Frame rate mode : Constant
Frame rate : 25.000 fps
Color space : YUV
Chroma subsampling : 4:2:0
Bit depth : 8 bits
Scan type : Progressive
Bits/(Pixel*Frame) : 0.249
Stream size : 1.57 GiB (72%)
Title : Летят журавли.1957.Jeneva.[TAS-IX.NET]
Writing library : x264 core 140 r2377 1ca7bb9
Encoding settings : cabac=1 / ref=16 / deblock=1:-2:-2 / analyse=0x3:0x133 / me=umh / subme=11 / psy=1 / psy_rd=0.65:0.00 / mixed_ref=1 / me_range=48 / chroma_me=1 / trellis=2 / 8x8dct=1 / cqm=0 / deadzone=21,11 / fast_pskip=0 / chroma_qp_offset=-2 / threads=12 / lookahead_threads=3 / sliced_threads=0 / nr=0 / decimate=0 / interlaced=0 / bluray_compat=0 / constrained_intra=0 / bframes=16 / b_pyramid=2 / b_adapt=2 / b_bias=0 / direct=3 / weightb=1 / open_gop=0 / weightp=2 / keyint=250 / keyint_min=25 / scenecut=40 / intra_refresh=0 / rc_lookahead=60 / rc=2pass / mbtree=1 / bitrate=2496 / ratetol=1.0 / qcomp=0.70 / qpmin=0 / qpmax=32 / qpstep=4 / cplxblur=20.0 / qblur=0.5 / vbv_maxrate=50000 / vbv_bufsize=62500 / nal_hrd=none / filler=0 / ip_ratio=1.30 / aq=1:0.90
Language : Russian
Default : Yes
Forced : No
Color primaries : BT.601 PAL
Transfer characteristics : BT.470 System B, BT.470 System G
Matrix coefficients : BT.601
Audio #1
ID : 2
Format : AC-3
Format/Info : Audio Coding 3
Mode extension : CM (complete main)
Format settings, Endianness : Big
Codec ID : A_AC3
Duration : 1h 32mn
Bit rate mode : Constant
Bit rate : 448 Kbps
Channel(s) : 6 channels
Channel positions : Front: L C R, Side: L R, LFE
Sampling rate : 48.0 KHz
Bit depth : 16 bits
Compression mode : Lossy
Stream size : 296 MiB (13%)
Title : Оригинал: AC-3; 16 bit 48 Khz; 6ch 448 Kbps; CBR
Language : Russian
Default : Yes
Forced : No
Audio #2
ID : 3
Format : AC-3
Format/Info : Audio Coding 3
Mode extension : CM (complete main)
Format settings, Endianness : Big
Codec ID : A_AC3
Duration : 1h 32mn
Bit rate mode : Constant
Bit rate : 448 Kbps
Channel(s) : 1 channel
Channel positions : Front: C
Sampling rate : 48.0 KHz
Bit depth : 16 bits
Compression mode : Lossy
Stream size : 296 MiB (13%)
Title : Оригинал: AC-3; 16 bit 48 Khz; Mono 448 Kbps; CBR
Language : Russian
Default : No
Forced : No

x264 log

avs [info]: 720x556p 16:15 @ 25/1 fps (cfr)
x264 [info]: using SAR=16/15
x264 [info]: using cpu capabilities: MMX2 SSE2Fast SSSE3 SSE4.2
x264 [info]: profile High, level 4.1
x264 [info]: frame I:618 Avg QP:18.90 size: 42946
x264 [info]: frame P:31844 Avg QP:21.31 size: 23032
x264 [info]: frame B:105997 Avg QP:22.94 size: 9136
x264 [info]: consecutive B-frames: 1.8% 2.5% 9.2% 31.1% 14.3% 36.3% 3.4% 0.8% 0.3% 0.1% 0.1% 0.1% 0.0% 0.0% 0.0% 0.0% 0.1%
x264 [info]: mb I I16..4: 2.9% 88.6% 8.5%
x264 [info]: mb P I16..4: 0.5% 24.9% 1.4% P16..4: 30.7% 30.1% 10.2% 0.6% 0.0% skip: 1.6%
x264 [info]: mb B I16..4: 0.1% 5.1% 0.2% B16..8: 34.6% 20.7% 3.0% direct: 7.8% skip:28.4% L0:40.0% L1:40.9% BI:19.0%
x264 [info]: 8x8 transform intra:93.4% inter:73.8%
x264 [info]: direct mvs spatial:99.0% temporal:1.0%
x264 [info]: coded y,uvDC,uvAC intra: 95.7% 0.0% 0.0% inter: 36.5% 0.0% 0.0%
x264 [info]: i16 v,h,dc,p: 15% 8% 5% 72%
x264 [info]: i8 v,h,dc,ddl,ddr,vr,hd,vl,hu: 10% 6% 5% 10% 15% 14% 13% 13% 13%
x264 [info]: i4 v,h,dc,ddl,ddr,vr,hd,vl,hu: 12% 5% 3% 8% 18% 17% 14% 12% 11%
x264 [info]: i8c dc,h,v,p: 79% 21% 0% 0%
x264 [info]: Weighted P-Frames: Y:34.1% UV:0.0%
x264 [info]: ref P L0: 36.9% 13.5% 15.5% 7.8% 5.2% 4.4% 3.5% 2.2% 1.9% 1.7% 1.5% 1.4% 1.3% 1.2% 1.2% 0.9%
x264 [info]: ref B L0: 74.9% 10.9% 3.9% 2.3% 1.5% 1.5% 1.1% 0.8% 0.6% 0.6% 0.5% 0.5% 0.4% 0.3% 0.2%
x264 [info]: ref B L1: 95.2% 4.8%
x264 [info]: kb/s:2496.57
x264 [total]: encoded 138459 frames, 10.44 fps, 2496.57 kb/s

Скриншоты





Создавать темы 01-Май-2015 13:24

[Профиль]  [ЛС] 
Показать сообщения:    
Ответить на тему

Текущее время: 15-Дек 15:23

Часовой пояс: UTC + 5



Вы не можете начинать темы
Вы не можете отвечать на сообщения
Вы не можете редактировать свои сообщения
Вы не можете удалять свои сообщения
Вы не можете голосовать в опросах
Вы не можете прикреплять файлы к сообщениям
Вы не можете скачивать файлы