Игра в имитацию / The Imitation Game (Мортен Тильдум / Morten Tyldum) [2014, Великобритания, США, триллер, драма, военный, биография, BDRip] [лицензия] (Sub Rus + Original Eng)

Ответить на тему
 

ruwind ®

Стаж: 3 года 11 месяцев

Сообщений: 13

Симпатии: 16

Игра в имитацию / The Imitation Game
Производство: Black Bear Pictures, Bristol Automotive
Страна:
Великобритания, США
Жанр: триллер, драма, военный, биография
Год выпуска: 2014
Продолжительность: 01:54:14
Перевод: Профессиональный (дублированный) Лицензия
Cубтитры: русские, английские
Оригинальная аудиодорожка: английский
Режиссер: Мортен Тильдум / Morten Tyldum
В ролях: Бенедикт Камбербэтч, Кира Найтли, Мэттью Гуд, Рори Киннер, Аллен Лич, Мэттью Бирд, Чарльз Дэнс, Марк Стронг, Джеймс Норткот
Описание: События разворачиваются в 1941 году. Британская разведка безуспешно пытается взломать код шифровальной машины «Энигма», которая была разработана немцами. Чтобы достичь результатов, были наняты самые опытные специалисты, среди которых Алан, блестящий ученый, но как будто живущий не в нашем мире. Добиться расположения коллег герою помогает очаровательная девушка, которая по воле случая оказалась в мужской команде.

Качество видео: BDRip 720p
Формат видео: MKV
Видео: 1280x534 (2.40:1) at 23.976 fps, AVC at 3060 kbps avg, 0.187 bit/pixel
Аудио: Русский, AC3 5.1, 640 kbps, 48 kHz - Dub, R5
Аудио 2: Английский, AC3 5.1, 640 kbps, 48 kHz - Original
Формат субтитров: softsub (SRT)

MediaInfo

F:\Film HD\The Imitation Game.2014.720p.BluRay.x264.mkv
General
Unique ID : 38866075724346857705679547881616846367 (0x1D3D557ADA4D97B120290A9965A82E1F)
Complete name : F:\Film HD\The Imitation Game.2014.720p.BluRay.x264.mkv
Format : Matroska
Format version : Version 2
File size : 3.52 GiB
Duration : 1h 54mn
Overall bit rate : 4 414 Kbps
Encoded date : UTC 2015-04-20 10:48:42
Writing application : mkvmerge v5.0.1 ('Es ist Sommer') built on Oct 23 2011 00:46:40
Writing library : libebml v1.2.2 + libmatroska v1.3.0
Cover : Yes
Video #1
ID : 1
Format : AVC
Format/Info : Advanced Video Codec
Format profile : [email protected]
Format settings, CABAC : Yes
Format settings, ReFrames : 9 frames
Codec ID : V_MPEG4/ISO/AVC
Duration : 1h 54mn
Bit rate : 3 047 Kbps
Width : 1 280 pixels
Height : 534 pixels
Display aspect ratio : 2.40:1
Frame rate mode : Constant
Frame rate : 23.976 fps
Color space : YUV
Chroma subsampling : 4:2:0
Bit depth : 8 bits
Scan type : Progressive
Bits/(Pixel*Frame) : 0.186
Stream size : 2.43 GiB (69%)
Writing library : x264 core 125 r2208 d9d2288
Encoding settings : cabac=1 / ref=9 / deblock=1:-3:-3 / analyse=0x3:0x133 / me=umh / subme=11 / psy=1 / psy_rd=1.00:0.00 / mixed_ref=1 / me_range=32 / chroma_me=1 / trellis=2 / 8x8dct=1 / cqm=0 / deadzone=21,11 / fast_pskip=0 / chroma_qp_offset=-2 / threads=12 / lookahead_threads=2 / sliced_threads=0 / nr=0 / decimate=1 / interlaced=0 / bluray_compat=0 / constrained_intra=0 / bframes=8 / b_pyramid=2 / b_adapt=2 / b_bias=0 / direct=1 / weightb=1 / open_gop=0 / weightp=2 / keyint=250 / keyint_min=23 / scenecut=40 / intra_refresh=0 / rc=crf / mbtree=0 / crf=17.8 / qcomp=0.60 / qpmin=0 / qpmax=69 / qpstep=4 / ip_ratio=1.40 / pb_ratio=1.30 / aq=1:1.00
Language : English
Default : Yes
Forced : No
Audio #2
ID : 2
Format : AC-3
Format/Info : Audio Coding 3
Mode extension : CM (complete main)
Format settings, Endianness : Big
Codec ID : A_AC3
Duration : 1h 54mn
Bit rate mode : Constant
Bit rate : 640 Kbps
Channel(s) : 6 channels
Channel positions : Front: L C R, Side: L R, LFE
Sampling rate : 48.0 KHz
Bit depth : 16 bits
Compression mode : Lossy
Stream size : 523 MiB (14%)
Language : Russian
Default : Yes
Forced : Yes
Audio #3
ID : 3
Format : AC-3
Format/Info : Audio Coding 3
Mode extension : CM (complete main)
Format settings, Endianness : Big
Codec ID : A_AC3
Duration : 1h 54mn
Bit rate mode : Constant
Bit rate : 640 Kbps
Channel(s) : 6 channels
Channel positions : Front: L C R, Side: L R, LFE
Sampling rate : 48.0 KHz
Bit depth : 16 bits
Compression mode : Lossy
Stream size : 523 MiB (14%)
Title : Original
Language : English
Default : No
Forced : No
Text #4
ID : 4
Format : UTF-8
Codec ID : S_TEXT/UTF8
Codec ID/Info : UTF-8 Plain Text
Title : Sub-Matveev
Language : Russian
Default : No
Forced : No
Text #5
ID : 5
Format : UTF-8
Codec ID : S_TEXT/UTF8
Codec ID/Info : UTF-8 Plain Text
Title : Sub-full
Language : English
Default : No
Forced : No
Text #6
ID : 6
Format : UTF-8
Codec ID : S_TEXT/UTF8
Codec ID/Info : UTF-8 Plain Text
Title : Sub-SDH
Language : English
Default : No
Forced : No

Скриншот c названием фильма

Скриншоты





Последний раз редактировалось: ruwind (2015-05-01 17:48), всего редактировалось 2 раз(а)

Создавать темы 01-Май-2015 15:00

[Профиль]  [ЛС] 

sem

Стаж: 7 лет 2 месяца

Сообщений: 123

Симпатии: 6

как фильм? как звук? отпишитесь смотревшие!!!)

Создавать темы 18-Ноя-2015 16:40

[Профиль]  [ЛС] 
Показать сообщения:    
Ответить на тему

Текущее время: 19-Дек 03:26

Часовой пояс: UTC + 5



Вы не можете начинать темы
Вы не можете отвечать на сообщения
Вы не можете редактировать свои сообщения
Вы не можете удалять свои сообщения
Вы не можете голосовать в опросах
Вы не можете прикреплять файлы к сообщениям
Вы не можете скачивать файлы