Я убил свою маму / J'ai tué ma mère (Ксавье Долан / Xavier Dolan) [2009, Канада, драма, DVDRip] (DVO) (Sub Rus + Original Fre)

Ответить на тему
 

kat222000 ®

Стаж: 6 лет 7 месяцев

Сообщений: 608

Симпатии: 1055

--Я убил свою маму / J'ai tué ma mère--Страна: Канада
Жанр: драма
Год выпуска: 2009
Продолжительность: 01:39:52--Перевод: Профессиональный (двухголосый закадровый)
Cубтитры: русские
Оригинальная аудиодорожка: французский--Режиссер: Ксавье Долан / Xavier Dolan--В ролях: Энни Дорвал, Франсуа Арно, Ксавье Долан, Сюзанн Клементе, Patricia Tulasne, Нильс Шнайдер, Моника Спациани, Джим Карден, Emile Mailhot, Паскаль Одри.--Описание: 16-летний Юбер пытается отстоять независимость и собственное достоинство перед матерью, которую он как любит, так и ненавидит. Мать любит его, но не умеет показать свои чувства сыну, она замучена работой, страдает от одиночества после того, как муж ушёл из семьи.
Юбера, талантливого художника, раздражает в матери всё: безвкусная одежда, манера есть, неумение разговаривать. А его мать Шанталь не находит в себе силы и не умеет понять проблем юноши. Она не готова признать сына самостоятельным взрослым человеком, выпустить его из-под своей часто излишней опеки.
Друзья, первый сексуальный опыт, одиночество, поиски юношей своего места в жизни — всё остаётся скрытым от матери...-- --Возраст: зрителям, достигшим 16 лет--«Я уби́л свою́ мáму» (фр. J'ai tué ma mère) — дебютный фильм канадского режиссёра Ксавье Долана, исполнившего в нём главную роль. Фильм является полуавтобиографическим. Он вышел на экраны Квебека 5 июня 2009 года, на экраны Франции — 15 июля того же года.--Качество видео: DVDRip
Формат видео: AVI
Видео кодек: XviD
Аудио кодек: AC3
Видео: 704x384 (1.83:1), 23.976 fps, XviD MPEG-4 ~1727 kbps avg, 0.27 bit/pixel
Аудио 1: 48 kHz, AC3 Dolby Digital, 2/0 (L,R) ch, ~192.00 kbps avg (русский)
Аудио 2: 48 kHz, AC3 Dolby Digital, 2/0 (L,R) ch, ~192.00 kbps avg (французский)
Формат субтитров: softsub (SRT)--

MediaInfo

General
Format : AVI
Format/Info : Audio Video Interleave
File size : 1.48 GiB
Duration : 1h 39mn
Overall bit rate : 2 125 Kbps
Writing application : VirtualDubMod 1.5.10.2 (build 2540/release)
Writing library : VirtualDubMod build 2540/release
Video
ID : 0
Format : MPEG-4 Visual
Format profile : Advanced [email protected]
Format settings, BVOP : Yes
Format settings, QPel : No
Format settings, GMC : No warppoints
Format settings, Matrix : Custom
Codec ID : XVID
Codec ID/Hint : XviD
Duration : 1h 39mn
Bit rate : 1 727 Kbps
Width : 704 pixels
Height : 384 pixels
Display aspect ratio : 1.85:1
Frame rate : 23.976 fps
Color space : YUV
Chroma subsampling : 4:2:0
Bit depth : 8 bits
Scan type : Progressive
Compression mode : Lossy
Bits/(Pixel*Frame) : 0.266
Stream size : 1.21 GiB (81%)
Writing library : XviD 1.2.1 (UTC 2008-12-04)
Audio #1
ID : 1
Format : AC-3
Format/Info : Audio Coding 3
Mode extension : CM (complete main)
Format settings, Endianness : Big
Codec ID : 2000
Duration : 1h 39mn
Bit rate mode : Constant
Bit rate : 192 Kbps
Channel(s) : 2 channels
Channel positions : Front: L R
Sampling rate : 48.0 KHz
Bit depth : 16 bits
Compression mode : Lossy
Delay relative to video : 589ms
Stream size : 137 MiB (9%)
Alignment : Split accross interleaves
Interleave, duration : 42 ms (1.00 video frame)
Interleave, preload duration : 500 ms
Audio #2
ID : 2
Format : AC-3
Format/Info : Audio Coding 3
Mode extension : CM (complete main)
Format settings, Endianness : Big
Codec ID : 2000
Duration : 1h 39mn
Bit rate mode : Constant
Bit rate : 192 Kbps
Channel(s) : 2 channels
Channel positions : Front: L R
Sampling rate : 48.0 KHz
Bit depth : 16 bits
Compression mode : Lossy
Delay relative to video : 650ms
Stream size : 137 MiB (9%)
Alignment : Split accross interleaves
Interleave, duration : 42 ms (1.00 video frame)
Interleave, preload duration : 500 ms
-

Скриншот c названием фильма

-

Скриншоты



- - -
-

Создавать темы 01-Май-2015 15:39

[Профиль]  [ЛС] 

FRIEND

Стаж: 6 лет 9 месяцев

Сообщений: 120

Симпатии: 7

Для молодого дебютанта Долана вообще не плох думаю в те 2009-е имхо.
А "Том на ферме" тоже будет?

Создавать темы 02-Май-2015 20:53

[Профиль]  [ЛС] 

kat222000 ®

Стаж: 6 лет 7 месяцев

Сообщений: 608

Симпатии: 1055

934376Для молодого дебютанта Долана вообще не плох думаю в те 2009-е имхо.
А "Том на ферме" тоже будет?
АГА ae

Создавать темы 02-Май-2015 21:55

[Профиль]  [ЛС] 
Показать сообщения:    
Ответить на тему

Текущее время: 24-Ноя 20:03

Часовой пояс: UTC + 5



Вы не можете начинать темы
Вы не можете отвечать на сообщения
Вы не можете редактировать свои сообщения
Вы не можете удалять свои сообщения
Вы не можете голосовать в опросах
Вы не можете прикреплять файлы к сообщениям
Вы не можете скачивать файлы