И всё же Лоранс / Laurence Anyways (Ксавье Долан / Xavier Dolan) [2012, Канада, Франция, драма, мелодрама, HDRip] (DVO : [НТВ+])

Ответить на тему
 

kat222000 ®

Стаж: 6 лет 8 месяцев

Сообщений: 608

Симпатии: 1055

--И всё же Лоранс / Laurence Anyways--Страна: Канада, Франция
Жанр: драма, мелодрама
Год выпуска: 2012
Продолжительность: 02:48:02--Перевод: Профессиональный (двухголосый закадровый) [НТВ+]
Cубтитры: нет--Режиссер: Ксавье Долан / Xavier Dolan--В ролях: Мельвиль Пупо, Сюзанн Клеман, Натали Бэй, Монья Шокри, Сьюзэн Алмгрен, Ив Жак, Софи Фочер, Мэгали, Лепин Блондо, Катрин Беджин, Эммануэль Шварц--Описание: Лоранс — 35-летний преподаватель колледжа. Он работает над своей первой поэтической книгой, получает награды за талант и счастлив в любви со своей подругой Фред. Эта пара очень близка, между ними царит гармония и взаимопонимание, и оттого как гром среди ясного неба звучат слова Лоранса о том, что он решил сменить пол.
По его словам, уже долгие годы он живет с мыслью о том, что просто не может быть мужчиной, что чувствует себя женщиной. Преодолевая предубеждения окружающих и сопротивление своей семьи, герои картины пытаются выстоять в противостоянии с обществом.-- --Возраст: зрителям, достигшим 18 лет--«И всё же Лоранс» (англ. Laurence Anyways) — третий фильм канадского режиссера Ксавье Долана. Премьера состоялась 18 мая 2012 года на Каннском кинофестивале в программе «Особый взгляд», в рамках которой актриса Сюзанн Клеман получила приз за лучшую женскую роль.--Качество видео: HDRip
Формат видео: AVI
Видео кодек: XviD
Аудио кодек: AC3
Видео: Xvid, 720x512, 23.976fps, 1046kbps
Аудио: Dolby AC3, 48000Hz, 2 ch, 192kbps--

MediaInfo

General
Format : AVI
Format/Info : Audio Video Interleave
File size : 1.46 GiB
Duration : 2h 48mn
Overall bit rate : 1 248 Kbps
Writing application : VirtualDubMod 1.5.10.2 (build 2540/release)
Writing library : VirtualDubMod build 2540/release
Video
ID : 0
Format : MPEG-4 Visual
Format profile : Advanced [email protected]
Format settings, BVOP : Yes
Format settings, QPel : No
Format settings, GMC : No warppoints
Format settings, Matrix : Default (MPEG)
Codec ID : XVID
Codec ID/Hint : XviD
Duration : 2h 48mn
Bit rate : 1 046 Kbps
Width : 720 pixels
Height : 512 pixels
Display aspect ratio : 1.406
Frame rate : 23.976 fps
Color space : YUV
Chroma subsampling : 4:2:0
Bit depth : 8 bits
Scan type : Progressive
Compression mode : Lossy
Bits/(Pixel*Frame) : 0.118
Stream size : 1.23 GiB (84%)
Writing library : XviD 1.2.1 (UTC 2008-12-04)
Audio
ID : 1
Format : AC-3
Format/Info : Audio Coding 3
Mode extension : CM (complete main)
Format settings, Endianness : Big
Codec ID : 2000
Duration : 2h 47mn
Bit rate mode : Constant
Bit rate : 192 Kbps
Channel(s) : 2 channels
Channel positions : Front: L R
Sampling rate : 48.0 KHz
Bit depth : 16 bits
Compression mode : Lossy
Stream size : 230 MiB (15%)
Alignment : Split accross interleaves
Interleave, duration : 42 ms (1.00 video frame)
Interleave, preload duration : 500 ms
-

Скриншот c названием фильма

-

Скриншоты



- - -
-

Создавать темы 01-Май-2015 16:05

[Профиль]  [ЛС] 

Seven_Sky

Стаж: 6 лет 11 месяцев

Сообщений: 431

Симпатии: 43

934237Год выпуска: 2012
А качество скринов говорит что фильм из далеких 2000х, или это так создатели постарались?))

Создавать темы 01-Май-2015 17:51

[Профиль]  [ЛС] 

kat222000 ®

Стаж: 6 лет 8 месяцев

Сообщений: 608

Симпатии: 1055

934251
934237Год выпуска: 2012
А качество скринов говорит что фильм из далеких 2000х, или это так создатели постарались?))
За Что Купили, За То И Продали... aa

Создавать темы 01-Май-2015 18:25

[Профиль]  [ЛС] 

IQBOT

Стаж: 6 лет 10 месяцев

Сообщений: 449

Симпатии: 81

Ох, мой самый любимый фильм Долана.
Очень светлый, правда, не смотря ни на что.

Создавать темы 02-Май-2015 14:13

[Профиль]  [ЛС] 

FRIEND

Стаж: 6 лет 10 месяцев

Сообщений: 120

Симпатии: 7

934333Ох, мой самый любимый фильм Долана.
Очень светлый, правда, не смотря ни на что.
+1

Создавать темы 02-Май-2015 20:48

[Профиль]  [ЛС] 

FRIEND

Стаж: 6 лет 10 месяцев

Сообщений: 120

Симпатии: 7

По правде говоря , до этого фильма я вообще не знала кто такой Долан несмотря на его "Я убил свою маму ".
сейсас найду диск на котором был записан этот фильм и присоединюсь к раздаче

Создавать темы 02-Май-2015 20:50

[Профиль]  [ЛС] 
Показать сообщения:    
Ответить на тему

Текущее время: 16-Дек 08:26

Часовой пояс: UTC + 5



Вы не можете начинать темы
Вы не можете отвечать на сообщения
Вы не можете редактировать свои сообщения
Вы не можете удалять свои сообщения
Вы не можете голосовать в опросах
Вы не можете прикреплять файлы к сообщениям
Вы не можете скачивать файлы