Призрак в доспехах / Ghost in the Shell / Koukaku Kidoutai (Осии Мамору) [Movie] [без хардсаба] [RUS(int), ENG, JAP+SUB] [1995 г., приключения, фантастика, BDRemux] [1080p]

Ответить на тему
 

outoforder ®

Стаж: 4 года 11 месяцев

Сообщений: 812

Симпатии: 172

Призрак в доспехах
Koukaku Kidoutai
- Год выпуска: 1995
Страна: Япония
Жанр: приключения, фантастика
Продолжительность: 01:22:40-Перевод:
русские субтитры по дубляжу ОРТ
английские субтитры от OZC-Озвучка:
полное дублирование по заказу ОРТ
двухголосая (муж./жен.) П. Гланца и И. Королевой
двухголосая (муж./жен.) от Tycoon-Studio
одноголосая (муж.) А. Гаврилова
одноголосая (муж.) П. Гланца
одноголосая (муж.) А. Лапшина-Режиссер: Осии Мамору
Студия: -Описание:
В недалеком 2029 году сети и компьютеры развились до того, что появилась возможность создавать высокотехнологичных киборгов с полной интеграцией в Сеть. Главная героиня Кусанаги Мотоко - киборг, с человеческим разумом внутри кибернетического тела, майор Девятого отдела, созданного для спецопераций правительства. В Сети объявляется некий Кукловод, манипулирующий людьми через ту же Сеть, заставляя их действовать в его интересах. Его поимкой и занимается Девятый отдел. Но не все так просто, Кукловод оказывается разумным вирусом, разработанным "коллегами" из Шестого отдела для промышленного шпионажа и т.д., в деле оказывается замешана политика...-Информационные ссылки: AniDB || World Art || MAL-Качество: BDRemux
Тип видео: без хардсаба
Формат: mkv
Видео: H.264, 1920x1080, 34649 Kbps, 23.976fps
Аудио RUS 1: DTS-HD MA, 48000Hz, 1193 Kbps, 2ch, 16-bit
Аудио RUS 2: DTS-HD MA, 48000Hz, 988 Kbps, 2ch, 16-bit
Аудио RUS 3: AC3, 48000Hz, 192 Kbps, 2ch
Аудио RUS 4: AC3, 48000Hz, 224 Kbps, 2ch
Аудио RUS 5: DTS-HD MA, 48000Hz, 984 Kbps, 2ch, 16-bit
Аудио RUS 6: DTS-HD MA, 48000Hz, 964 Kbps, 2ch, 16-bit
Аудио ENG: AC3, 48000Hz, 640 Kbps, 2ch
Аудио JAP: DTS-HD MA, 48000Hz, 952 Kbps, 2ch, 16-bit-

Скриншоты





MediaInfo

General
Unique ID : 177608670593632755440973911063156791842 (0x859E2F8A8DB20E5B8A945EE958089A22)
Complete name : H:\Ghost.in.the.Shell.mkv
Format : Matroska
Format version : Version 2
File size : 23.5 GiB
Duration : 1h 22mn
Overall bit rate mode : Variable
Overall bit rate : 40.7 Mbps
Encoded date : UTC 2012-01-09 09:13:36
Writing application : mkvmerge v5.2.1 ('A Far Off Place') built on Jan 2 2012 23:21:10
Writing library : libebml v1.2.3 + libmatroska v1.3.0
Video
ID : 1
Format : AVC
Format/Info : Advanced Video Codec
Format profile : [email protected]
Format settings, CABAC : Yes
Format settings, ReFrames : 4 frames
Format settings, GOP : M=3, N=12
Muxing mode : Container [email protected]
Codec ID : V_MPEG4/ISO/AVC
Duration : 1h 22mn
Bit rate mode : Variable
Bit rate : 34.8 Mbps
Maximum bit rate : 40.0 Mbps
Width : 1 920 pixels
Height : 1 080 pixels
Display aspect ratio : 16:9
Frame rate : 23.976 fps
Standard : NTSC
Color space : YUV
Chroma subsampling : 4:2:0
Bit depth : 8 bits
Scan type : Progressive
Bits/(Pixel*Frame) : 0.701
Stream size : 20.1 GiB (86%)
Default : No
Forced : No
Color primaries : BT.709-5, BT.1361, IEC 61966-2-4, SMPTE RP177
Transfer characteristics : BT.709-5, BT.1361
Matrix coefficients : BT.709-5, BT.1361, IEC 61966-2-4 709, SMPTE RP177
Audio #1
ID : 2
Format : DTS
Format/Info : Digital Theater Systems
Format profile : MA / Core
Muxing mode : Header stripping
Codec ID : A_DTS
Duration : 1h 22mn
Bit rate mode : Variable
Bit rate : 803 Kbps / 755 Kbps
Channel(s) : 2 channels
Channel positions : Front: L R
Sampling rate : 48.0 KHz
Bit depth : 16 bits
Compression mode : Lossless / Lossy
Title : Русский DTS-HD MA, 2ch 1166 kbps (полное дублирование, ОРТ)
Language : Russian
Default : Yes
Forced : No
Audio #2
ID : 3
Format : DTS
Format/Info : Digital Theater Systems
Format profile : MA / Core
Muxing mode : Header stripping
Codec ID : A_DTS
Duration : 1h 22mn
Bit rate mode : Variable
Bit rate : 803 Kbps / 755 Kbps
Channel(s) : 2 channels
Channel positions : Front: L R
Sampling rate : 48.0 KHz
Bit depth : 16 bits
Compression mode : Lossless / Lossy
Title : Русский DTS-HD MA, 2ch 965 kbps (двухголосый, Гланц и Королева)
Language : Russian
Default : No
Forced : No
Audio #3
ID : 4
Format : AC-3
Format/Info : Audio Coding 3
Mode extension : CM (complete main)
Muxing mode : Header stripping
Codec ID : A_AC3
Duration : 1h 22mn
Bit rate mode : Constant
Bit rate : 192 Kbps
Channel(s) : 2 channels
Channel positions : Front: L R
Sampling rate : 48.0 KHz
Bit depth : 16 bits
Compression mode : Lossy
Stream size : 114 MiB (0%)
Title : Русский AC3, 2ch 192 kbps (двухголосый, Tycoon-Studio)
Language : Russian
Default : No
Forced : No
Audio #4
ID : 5
Format : AC-3
Format/Info : Audio Coding 3
Mode extension : CM (complete main)
Muxing mode : Header stripping
Codec ID : A_AC3
Duration : 1h 22mn
Bit rate mode : Constant
Bit rate : 224 Kbps
Channel(s) : 2 channels
Channel positions : Front: L R
Sampling rate : 48.0 KHz
Bit depth : 16 bits
Compression mode : Lossy
Stream size : 132 MiB (1%)
Title : Русский AC3, 2ch 224 kbps (одноголосый, Гаврилов)
Language : Russian
Default : No
Forced : No
Audio #5
ID : 6
Format : DTS
Format/Info : Digital Theater Systems
Format profile : MA / Core
Muxing mode : Header stripping
Codec ID : A_DTS
Duration : 1h 22mn
Bit rate mode : Variable
Bit rate : 803 Kbps / 755 Kbps
Channel(s) : 2 channels
Channel positions : Front: L R
Sampling rate : 48.0 KHz
Bit depth : 16 bits
Compression mode : Lossless / Lossy
Title : Русский DTS-HD MA, 2ch 961 kbps (одноголосый, Гланц)
Language : Russian
Default : No
Forced : No
Audio #6
ID : 7
Format : DTS
Format/Info : Digital Theater Systems
Format profile : MA / Core
Muxing mode : Header stripping
Codec ID : A_DTS
Duration : 1h 22mn
Bit rate mode : Variable
Bit rate : 803 Kbps / 755 Kbps
Channel(s) : 2 channels
Channel positions : Front: L R
Sampling rate : 48.0 KHz
Bit depth : 16 bits
Compression mode : Lossless / Lossy
Title : Русский DTS-HD MA, 2ch 942 kbps (одноголосый, Лапшин)
Language : Russian
Default : No
Forced : No
Audio #7
ID : 8
Format : AC-3
Format/Info : Audio Coding 3
Format profile : Dolby Digital
Mode extension : CM (complete main)
Muxing mode : Header stripping
Codec ID : A_AC3
Duration : 1h 22mn
Bit rate mode : Constant
Bit rate : 640 Kbps
Channel(s) : 2 channels
Channel positions : Front: L R
Sampling rate : 48.0 KHz
Bit depth : 16 bits
Compression mode : Lossy
Stream size : 378 MiB (2%)
Title : Английский AC3, 2ch 640 kbps
Language : English
Default : No
Forced : No
Audio #8
ID : 9
Format : DTS
Format/Info : Digital Theater Systems
Format profile : MA / Core
Muxing mode : Header stripping
Codec ID : A_DTS
Duration : 1h 22mn
Bit rate mode : Variable
Bit rate : 803 Kbps / 755 Kbps
Channel(s) : 2 channels
Channel positions : Front: L R
Sampling rate : 48.0 KHz
Bit depth : 16 bits
Compression mode : Lossless / Lossy
Title : Японский DTS-HD MA, 2ch 930 kbps
Language : Japanese
Default : No
Forced : No
Text #1
ID : 10
Format : ASS
Codec ID : S_TEXT/ASS
Codec ID/Info : Advanced Sub Station Alpha
Compression mode : Lossless
Default : Yes
Forced : No
Text #2
ID : 11
Format : ASS
Codec ID : S_TEXT/ASS
Codec ID/Info : Advanced Sub Station Alpha
Compression mode : Lossless
Default : No
Forced : No
Menu
00:00:00.000 : en:00:00:00.000
00:04:06.163 : en:00:04:06.163
00:08:24.754 : en:00:08:24.754
00:13:15.169 : en:00:13:15.169
00:24:17.706 : en:00:24:17.706
00:26:05.063 : en:00:26:05.063
00:27:40.158 : en:00:27:40.158
00:33:02.981 : en:00:33:02.981
00:36:21.513 : en:00:36:21.513
00:45:32.271 : en:00:45:32.271
00:53:59.486 : en:00:53:59.486
00:59:40.410 : en:00:59:40.410
01:06:24.355 : en:01:06:24.355
01:13:58.434 : en:01:13:58.434
01:17:31.480 : en:01:17:31.480

BDInfo оригинального диска

Disc Title: GITS
Disc Size: 26 022 624 624 bytes
Protection: AACS
BD-Java: No
BDInfo: 0.5.6
Notes:
BDINFO HOME:
Cinema Squid
http://www.cinemasquid.com/blu-ray/tools/bdinfo
INCLUDES FORUMS REPORT FOR:
AVS Forum Blu-ray Audio and Video Specifications Thread
http://www.avsforum.com/avs-vb/showthread.php?t=1155731
********************
PLAYLIST: 00000.MPLS
********************
<--- BEGIN FORUMS PASTE --->
Код:
Total Video
Title Codec Length Movie Size Disc Size Bitrate Bitrate Main Audio Track Secondary Audio Track
----- ------ ------- -------------- -------------- ------- ------- ------------------ ---------------------
00000.MPLS AVC 1:22:53 24 127 057 920 26 022 624 624 38,81 34,57 LPCM 2.0 1536Kbps (48kHz/16-bit)
Код:
DISC INFO:
Disc Title: GITS
Disc Size: 26 022 624 624 bytes
Protection: AACS
BD-Java: No
BDInfo: 0.5.6
PLAYLIST REPORT:
Name: 00000.MPLS
Length: 1:22:53 (h:m:s)
Size: 24 127 057 920 bytes
Total Bitrate: 38,81 Mbps
VIDEO:
Codec Bitrate Description
----- ------- -----------
MPEG-4 AVC Video 34572 kbps 1080p / 23,976 fps / 16:9 / High Profile 4.1
AUDIO:
Codec Language Bitrate Description
----- -------- ------- -----------
LPCM Audio Japanese 1536 kbps 2.0 / 48 kHz / 1536 kbps / 16-bit
Dolby Digital Audio English 640 kbps 2.0 / 48 kHz / 640 kbps / Dolby Surround
SUBTITLES:
Codec Language Bitrate Description
----- -------- ------- -----------
Presentation Graphics English 34,822 kbps
Presentation Graphics Japanese 22,770 kbps
FILES:
Name Time In Length Size Total Bitrate
---- ------- ------ ---- -------------
00000.M2TS 0:00:00.000 1:22:39.955 24 092 940 288 38 860
00001.M2TS 1:22:39.955 0:00:13.013 14 290 944 8 786
00008.M2TS 1:22:52.968 0:00:01.000 19 826 688 158 455
CHAPTERS:
Number Time In Length Avg Video Rate Max 1-Sec Rate Max 1-Sec Time Max 5-Sec Rate Max 5-Sec Time Max 10Sec Rate Max 10Sec Time Avg Frame Size Max Frame Size Max Frame Time
------ ------- ------ -------------- -------------- -------------- -------------- -------------- -------------- -------------- -------------- -------------- --------------
1 0:00:00.000 0:04:06.162 34 844 kbps 42 481 kbps 00:03:42.013 40 044 kbps 00:00:35.076 39 775 kbps 00:00:30.071 181 628 bytes 509 704 bytes 00:00:00.000
2 0:04:06.162 0:04:18.591 30 349 kbps 52 871 kbps 00:06:09.410 42 284 kbps 00:06:05.406 39 184 kbps 00:05:44.594 158 226 bytes 717 667 bytes 00:06:10.078
3 0:08:24.754 0:04:50.415 35 107 kbps 41 262 kbps 00:10:07.898 39 832 kbps 00:10:04.061 39 644 kbps 00:10:41.182 183 030 bytes 422 621 bytes 00:10:30.796
4 0:13:15.169 0:11:02.536 38 112 kbps 45 738 kbps 00:18:11.632 40 229 kbps 00:20:24.723 39 753 kbps 00:22:07.868 198 700 bytes 592 773 bytes 00:18:12.508
5 0:24:17.706 0:01:47.357 35 652 kbps 40 679 kbps 00:24:30.635 39 794 kbps 00:24:26.631 39 681 kbps 00:24:21.626 185 873 bytes 418 324 bytes 00:24:22.711
6 0:26:05.063 0:01:35.094 34 261 kbps 40 836 kbps 00:27:08.668 39 760 kbps 00:27:09.419 39 633 kbps 00:27:09.419 178 620 bytes 390 584 bytes 00:27:09.461
7 0:27:40.158 0:05:22.822 35 169 kbps 39 782 kbps 00:29:19.591 38 483 kbps 00:29:18.882 38 178 kbps 00:29:19.549 183 357 bytes 361 454 bytes 00:29:21.593
8 0:33:02.981 0:03:18.531 36 588 kbps 40 941 kbps 00:33:27.547 39 889 kbps 00:33:14.534 39 733 kbps 00:33:11.531 190 754 bytes 546 697 bytes 00:36:19.510
9 0:36:21.512 0:09:10.758 35 780 kbps 44 751 kbps 00:36:53.377 39 820 kbps 00:38:38.691 39 696 kbps 00:38:33.686 186 541 bytes 672 509 bytes 00:36:53.461
10 0:45:32.271 0:08:27.215 35 683 kbps 40 914 kbps 00:46:26.867 39 841 kbps 00:46:22.863 39 706 kbps 00:46:17.858 186 034 bytes 394 708 bytes 00:47:50.409
11 0:53:59.486 0:05:40.923 35 940 kbps 41 533 kbps 00:59:39.200 39 932 kbps 00:59:35.154 39 654 kbps 00:55:32.162 187 377 bytes 430 653 bytes 00:55:21.276
12 0:59:40.410 0:06:43.945 35 213 kbps 42 899 kbps 00:59:41.911 39 700 kbps 01:04:00.169 39 359 kbps 01:00:29.709 183 584 bytes 436 208 bytes 01:01:04.202
13 1:06:24.355 0:07:34.078 36 020 kbps 45 839 kbps 01:13:56.140 39 808 kbps 01:07:11.027 39 697 kbps 01:07:06.022 187 790 bytes 867 833 bytes 01:13:57.141
14 1:13:58.434 0:03:33.046 33 456 kbps 39 757 kbps 01:16:14.903 38 358 kbps 01:16:14.861 36 453 kbps 01:16:10.023 174 426 bytes 361 866 bytes 01:14:06.400
15 1:17:31.480 0:05:21.487 20 588 kbps 39 211 kbps 01:17:31.480 38 033 kbps 01:17:31.480 37 538 kbps 01:17:31.480 107 336 bytes 598 519 bytes 01:17:57.422
16 1:22:52.968 0:00:01.001 1 211 kbps 0 kbps 00:00:00.000 0 kbps 00:00:00.000 0 kbps 00:00:00.000 6 586 bytes 6 586 bytes 01:22:53.009
STREAM DIAGNOSTICS:
File PID Type Codec Language Seconds Bitrate Bytes Packets
---- --- ---- ----- -------- -------------- -------------- ------------- -----
00000.M2TS 4113 (0x1011) 0x1B AVC 4959,788 34 655 21 485 239 108 116 836 922
00000.M2TS 4352 (0x1100) 0x80 LPCM jpn (Japanese) 4959,788 1 542 956 279 324 5 951 946
00000.M2TS 4353 (0x1101) 0x81 AC3 eng (English) 4959,788 640 396 797 440 2 324 985
00000.M2TS 4608 (0x1200) 0x90 PGS jpn (Japanese) 4959,788 23 14 143 837 81 253
00000.M2TS 4609 (0x1201) 0x90 PGS eng (English) 4959,788 35 21 636 716 122 773
00001.M2TS 4113 (0x1011) 0x1B AVC 12,846 5 989 9 617 479 52 395
00001.M2TS 4352 (0x1100) 0x80 LPCM jpn (Japanese) 12,846 1 563 2 509 292 15 618
00001.M2TS 4353 (0x1101) 0x81 AC3 eng (English) 12,846 625 1 003 520 5 880
00001.M2TS 4608 (0x1200) 0x90 PGS jpn (Japanese) 12,846 4 6 762 44
00001.M2TS 4609 (0x1201) 0x90 PGS eng (English) 12,846 4 6 762 44
00008.M2TS 4113 (0x1011) 0x1B AVC 0,834 1 517 158 140 865
00008.M2TS 4352 (0x1100) 0x80 LPCM jpn (Japanese) 0,834 111 053 11 579 568 72 072
00008.M2TS 4353 (0x1101) 0x81 AC3 eng (English) 0,834 46 108 4 807 680 28 170
00008.M2TS 4608 (0x1200) 0x90 PGS jpn (Japanese) 0,834 65 6 762 44
00008.M2TS 4609 (0x1201) 0x90 PGS eng (English) 0,834 65 6 762 44
<---- END FORUMS PASTE ---->
QUICK SUMMARY:
Disc Title: GITS
Disc Size: 26 022 624 624 bytes
Protection: AACS
BD-Java: No
Playlist: 00000.MPLS
Size: 24 127 057 920 bytes
Length: 1:22:53
Total Bitrate: 38,81 Mbps
Video: MPEG-4 AVC Video / 34572 kbps / 1080p / 23,976 fps / 16:9 / High Profile 4.1
Audio: Japanese / LPCM Audio / 2.0 / 48 kHz / 1536 kbps / 16-bit
Audio: English / Dolby Digital Audio / 2.0 / 48 kHz / 640 kbps / Dolby Surround
Subtitle: English / 34,822 kbps
Subtitle: Japanese / 22,770 kbps
********************
PLAYLIST: 00006.MPLS
********************
<--- BEGIN FORUMS PASTE --->
Код:
Total Video
Title Codec Length Movie Size Disc Size Bitrate Bitrate Main Audio Track Secondary Audio Track
----- ------ ------- -------------- -------------- ------- ------- ------------------ ---------------------
00006.MPLS AVC 0:03:08 901 330 944 26 022 624 624 38,32 32,31 LPCM 2.0 1536Kbps (48kHz/16-bit) LPCM 2.0 1536Kbps (48kHz/16-bit)
Код:
DISC INFO:
Disc Title: GITS
Disc Size: 26 022 624 624 bytes
Protection: AACS
BD-Java: No
BDInfo: 0.5.6
PLAYLIST REPORT:
Name: 00006.MPLS
Length: 0:03:08 (h:m:s)
Size: 901 330 944 bytes
Total Bitrate: 38,32 Mbps
VIDEO:
Codec Bitrate Description
----- ------- -----------
MPEG-4 AVC Video 32310 kbps 1080i / 29,970 fps / 16:9 / High Profile 4.1
AUDIO:
Codec Language Bitrate Description
----- -------- ------- -----------
LPCM Audio English 1536 kbps 2.0 / 48 kHz / 1536 kbps / 16-bit
LPCM Audio English 1536 kbps 2.0 / 48 kHz / 1536 kbps / 16-bit
SUBTITLES:
Codec Language Bitrate Description
----- -------- ------- -----------
Presentation Graphics English 0,575 kbps
Presentation Graphics Japanese 0,575 kbps
FILES:
Name Time In Length Size Total Bitrate
---- ------- ------ ---- -------------
00007.M2TS 0:00:00.000 0:03:07.187 881 651 712 37 680
00009.M2TS 0:03:07.187 0:00:01.000 19 679 232 157 277
CHAPTERS:
Number Time In Length Avg Video Rate Max 1-Sec Rate Max 1-Sec Time Max 5-Sec Rate Max 5-Sec Time Max 10Sec Rate Max 10Sec Time Avg Frame Size Max Frame Size Max Frame Time
------ ------- ------ -------------- -------------- -------------- -------------- -------------- -------------- -------------- -------------- -------------- --------------
1 0:00:00.000 0:03:07.187 32 483 kbps 47 561 kbps 00:00:22.022 42 269 kbps 00:00:21.688 41 883 kbps 00:00:19.185 135 455 bytes 581 702 bytes 00:00:25.425
2 0:03:07.187 0:00:01.000 111 kbps 0 kbps 00:00:00.000 0 kbps 00:00:00.000 0 kbps 00:00:00.000 478 bytes 2 435 bytes 00:03:07.787
STREAM DIAGNOSTICS:
File PID Type Codec Language Seconds Bitrate Bytes Packets
---- --- ---- ----- -------- -------------- -------------- ------------- -----
00007.M2TS 4113 (0x1011) 0x1B AVC 187,087 32 500 760 036 099 4 133 950
00007.M2TS 4352 (0x1100) 0x80 LPCM eng (English) 187,087 1 551 36 276 284 225 786
00007.M2TS 4353 (0x1101) 0x80 LPCM eng (English) 187,087 1 551 36 276 284 225 786
00007.M2TS 4608 (0x1200) 0x90 PGS jpn (Japanese) 187,087 0 6 762 44
00007.M2TS 4609 (0x1201) 0x90 PGS eng (English) 187,087 0 6 762 44
00009.M2TS 4113 (0x1011) 0x1B AVC 0,901 145 16 291 112
00009.M2TS 4352 (0x1100) 0x80 LPCM eng (English) 0,901 102 827 11 579 568 72 072
00009.M2TS 4353 (0x1101) 0x81 AC3 eng (English) 0,901 42 692 4 807 680 28 170
00009.M2TS 4608 (0x1200) 0x90 PGS jpn (Japanese) 0,901 60 6 762 44
00009.M2TS 4609 (0x1201) 0x90 PGS eng (English) 0,901 60 6 762 44
<---- END FORUMS PASTE ---->
QUICK SUMMARY:
Disc Title: GITS
Disc Size: 26 022 624 624 bytes
Protection: AACS
BD-Java: No
Playlist: 00006.MPLS
Size: 901 330 944 bytes
Length: 0:03:08
Total Bitrate: 38,32 Mbps
Video: MPEG-4 AVC Video / 32310 kbps / 1080i / 29,970 fps / 16:9 / High Profile 4.1
Audio: English / LPCM Audio / 2.0 / 48 kHz / 1536 kbps / 16-bit
Audio: English / LPCM Audio / 2.0 / 48 kHz / 1536 kbps / 16-bit
Subtitle: English / 0,575 kbps
Subtitle: Japanese / 0,575 kbps
********************
PLAYLIST: 00005.MPLS
********************
<--- BEGIN FORUMS PASTE --->
Код:
Total Video
Title Codec Length Movie Size Disc Size Bitrate Bitrate Main Audio Track Secondary Audio Track
----- ------ ------- -------------- -------------- ------- ------- ------------------ ---------------------
00005.MPLS AVC 0:01:58 609 325 056 26 022 624 624 41,27 34,70 LPCM 2.0 1536Kbps (48kHz/16-bit) LPCM 2.0 1536Kbps (48kHz/16-bit)
Код:
DISC INFO:
Disc Title: GITS
Disc Size: 26 022 624 624 bytes
Protection: AACS
BD-Java: No
BDInfo: 0.5.6
PLAYLIST REPORT:
Name: 00005.MPLS
Length: 0:01:58 (h:m:s)
Size: 609 325 056 bytes
Total Bitrate: 41,27 Mbps
VIDEO:
Codec Bitrate Description
----- ------- -----------
MPEG-4 AVC Video 34699 kbps 1080p / 23,976 fps / 16:9 / High Profile 4.1
AUDIO:
Codec Language Bitrate Description
----- -------- ------- -----------
LPCM Audio Japanese 1536 kbps 2.0 / 48 kHz / 1536 kbps / 16-bit
LPCM Audio Japanese 1536 kbps 2.0 / 48 kHz / 1536 kbps / 16-bit
SUBTITLES:
Codec Language Bitrate Description
----- -------- ------- -----------
Presentation Graphics English 0,916 kbps
Presentation Graphics Japanese 0,916 kbps
FILES:
Name Time In Length Size Total Bitrate
---- ------- ------ ---- -------------
00006.M2TS 0:00:00.000 0:01:57.116 589 498 368 40 267
00010.M2TS 0:01:57.116 0:00:01.000 19 826 688 158 455
CHAPTERS:
Number Time In Length Avg Video Rate Max 1-Sec Rate Max 1-Sec Time Max 5-Sec Rate Max 5-Sec Time Max 10Sec Rate Max 10Sec Time Avg Frame Size Max Frame Size Max Frame Time
------ ------- ------ -------------- -------------- -------------- -------------- -------------- -------------- -------------- -------------- -------------- --------------
1 0:00:00.000 0:01:57.116 34 986 kbps 46 545 kbps 00:00:21.021 39 719 kbps 00:00:30.321 38 370 kbps 00:01:09.110 182 334 bytes 549 658 bytes 00:00:21.479
2 0:01:57.116 0:00:01.000 1 211 kbps 0 kbps 00:00:00.000 0 kbps 00:00:00.000 0 kbps 00:00:00.000 6 586 bytes 6 586 bytes 00:01:57.158
STREAM DIAGNOSTICS:
File PID Type Codec Language Seconds Bitrate Bytes Packets
---- --- ---- ----- -------- -------------- -------------- ------------- -----
00006.M2TS 4113 (0x1011) 0x1B AVC 116,950 35 035 512 168 920 2 785 170
00006.M2TS 4352 (0x1100) 0x80 LPCM jpn (Japanese) 116,950 1 545 22 580 736 140 544
00006.M2TS 4353 (0x1101) 0x80 LPCM jpn (Japanese) 116,950 1 545 22 580 736 140 544
00006.M2TS 4608 (0x1200) 0x90 PGS jpn (Japanese) 116,950 0 6 762 44
00006.M2TS 4609 (0x1201) 0x90 PGS eng (English) 116,950 0 6 762 44
00010.M2TS 4113 (0x1011) 0x1B AVC 0,834 1 517 158 140 865
00010.M2TS 4352 (0x1100) 0x80 LPCM jpn (Japanese) 0,834 111 053 11 579 568 72 072
00010.M2TS 4353 (0x1101) 0x81 AC3 jpn (Japanese) 0,834 46 108 4 807 680 28 170
00010.M2TS 4608 (0x1200) 0x90 PGS jpn (Japanese) 0,834 65 6 762 44
00010.M2TS 4609 (0x1201) 0x90 PGS eng (English) 0,834 65 6 762 44
<---- END FORUMS PASTE ---->
QUICK SUMMARY:
Disc Title: GITS
Disc Size: 26 022 624 624 bytes
Protection: AACS
BD-Java: No
Playlist: 00005.MPLS
Size: 609 325 056 bytes
Length: 0:01:58
Total Bitrate: 41,27 Mbps
Video: MPEG-4 AVC Video / 34699 kbps / 1080p / 23,976 fps / 16:9 / High Profile 4.1
Audio: Japanese / LPCM Audio / 2.0 / 48 kHz / 1536 kbps / 16-bit
Audio: Japanese / LPCM Audio / 2.0 / 48 kHz / 1536 kbps / 16-bit
Subtitle: English / 0,916 kbps
Subtitle: Japanese / 0,916 kbps
********************
PLAYLIST: 00004.MPLS
********************
<--- BEGIN FORUMS PASTE --->
Код:
Total Video
Title Codec Length Movie Size Disc Size Bitrate Bitrate Main Audio Track Secondary Audio Track
----- ------ ------- -------------- -------------- ------- ------- ------------------ ---------------------
00004.MPLS AVC 0:00:50 256 886 784 26 022 624 624 41,06 32,80 LPCM 2.0 1536Kbps (48kHz/16-bit) LPCM 2.0 1536Kbps (48kHz/16-bit)
Код:
DISC INFO:
Disc Title: GITS
Disc Size: 26 022 624 624 bytes
Protection: AACS
BD-Java: No
BDInfo: 0.5.6
PLAYLIST REPORT:
Name: 00004.MPLS
Length: 0:00:50 (h:m:s)
Size: 256 886 784 bytes
Total Bitrate: 41,06 Mbps
VIDEO:
Codec Bitrate Description
----- ------- -----------
MPEG-4 AVC Video 32804 kbps 1080p / 23,976 fps / 16:9 / High Profile 4.1
AUDIO:
Codec Language Bitrate Description
----- -------- ------- -----------
LPCM Audio English 1536 kbps 2.0 / 48 kHz / 1536 kbps / 16-bit
LPCM Audio English 1536 kbps 2.0 / 48 kHz / 1536 kbps / 16-bit
SUBTITLES:
Codec Language Bitrate Description
----- -------- ------- -----------
Presentation Graphics English 2,162 kbps
Presentation Graphics Japanese 2,162 kbps
FILES:
Name Time In Length Size Total Bitrate
---- ------- ------ ---- -------------
00005.M2TS 0:00:00.000 0:00:49.048 237 060 096 38 665
00016.M2TS 0:00:49.048 0:00:01.000 19 826 688 158 455
CHAPTERS:
Number Time In Length Avg Video Rate Max 1-Sec Rate Max 1-Sec Time Max 5-Sec Rate Max 5-Sec Time Max 10Sec Rate Max 10Sec Time Avg Frame Size Max Frame Size Max Frame Time
------ ------- ------ -------------- -------------- -------------- -------------- -------------- -------------- -------------- -------------- -------------- --------------
1 0:00:00.000 0:00:49.048 33 449 kbps 39 358 kbps 00:00:19.894 35 323 kbps 00:00:15.890 34 919 kbps 00:00:10.885 174 240 bytes 427 676 bytes 00:00:31.823
2 0:00:49.048 0:00:01.000 1 211 kbps 0 kbps 00:00:00.000 0 kbps 00:00:00.000 0 kbps 00:00:00.000 6 586 bytes 6 586 bytes 00:00:49.090
STREAM DIAGNOSTICS:
File PID Type Codec Language Seconds Bitrate Bytes Packets
---- --- ---- ----- -------- -------------- -------------- ------------- -----
00005.M2TS 4113 (0x1011) 0x1B AVC 48,882 33 562 205 073 729 1 115 224
00005.M2TS 4352 (0x1100) 0x80 LPCM eng (English) 48,882 1 548 9 456 840 58 860
00005.M2TS 4353 (0x1101) 0x80 LPCM eng (English) 48,882 1 548 9 456 840 58 860
00005.M2TS 4608 (0x1200) 0x90 PGS jpn (Japanese) 48,882 1 6 762 44
00005.M2TS 4609 (0x1201) 0x90 PGS eng (English) 48,882 1 6 762 44
00016.M2TS 4113 (0x1011) 0x1B AVC 0,834 1 517 158 140 865
00016.M2TS 4352 (0x1100) 0x81 AC3 eng (English) 0,834 46 108 4 807 680 28 170
00016.M2TS 4353 (0x1101) 0x80 LPCM eng (English) 0,834 111 053 11 579 568 72 072
00016.M2TS 4608 (0x1200) 0x90 PGS jpn (Japanese) 0,834 65 6 762 44
00016.M2TS 4609 (0x1201) 0x90 PGS eng (English) 0,834 65 6 762 44
<---- END FORUMS PASTE ---->
QUICK SUMMARY:
Disc Title: GITS
Disc Size: 26 022 624 624 bytes
Protection: AACS
BD-Java: No
Playlist: 00004.MPLS
Size: 256 886 784 bytes
Length: 0:00:50
Total Bitrate: 41,06 Mbps
Video: MPEG-4 AVC Video / 32804 kbps / 1080p / 23,976 fps / 16:9 / High Profile 4.1
Audio: English / LPCM Audio / 2.0 / 48 kHz / 1536 kbps / 16-bit
Audio: English / LPCM Audio / 2.0 / 48 kHz / 1536 kbps / 16-bit
Subtitle: English / 2,162 kbps
Subtitle: Japanese / 2,162 kbps
********************
PLAYLIST: 00001.MPLS
********************
<--- BEGIN FORUMS PASTE --->
Код:
Total Video
Title Codec Length Movie Size Disc Size Bitrate Bitrate Main Audio Track Secondary Audio Track
----- ------ ------- -------------- -------------- ------- ------- ------------------ ---------------------
00001.MPLS AVC 0:00:40 99 514 368 26 022 624 624 19,88 14,54 LPCM 2.0 1536Kbps (48kHz/16-bit)
Код:
DISC INFO:
Disc Title: GITS
Disc Size: 26 022 624 624 bytes
Protection: AACS
BD-Java: No
BDInfo: 0.5.6
PLAYLIST REPORT:
Name: 00001.MPLS
Length: 0:00:40 (h:m:s)
Size: 99 514 368 bytes
Total Bitrate: 19,88 Mbps
VIDEO:
Codec Bitrate Description
----- ------- -----------
MPEG-4 AVC Video 14537 kbps 1080p / 23,976 fps / 16:9 / High Profile 4.1
AUDIO:
Codec Language Bitrate Description
----- -------- ------- -----------
LPCM Audio Japanese 1536 kbps 2.0 / 48 kHz / 1536 kbps / 16-bit
FILES:
Name Time In Length Size Total Bitrate
---- ------- ------ ---- -------------
00002.M2TS 0:00:00.000 0:00:12.554 10 985 472 7 000
00003.M2TS 0:00:12.554 0:00:26.484 74 133 504 22 393
00012.M2TS 0:00:39.038 0:00:01.000 14 395 392 115 048
CHAPTERS:
Number Time In Length Avg Video Rate Max 1-Sec Rate Max 1-Sec Time Max 5-Sec Rate Max 5-Sec Time Max 10Sec Rate Max 10Sec Time Avg Frame Size Max Frame Size Max Frame Time
------ ------- ------ -------------- -------------- -------------- -------------- -------------- -------------- -------------- -------------- -------------- --------------
1 0:00:00.000 0:00:12.554 4 876 kbps 12 470 kbps 00:00:00.041 5 465 kbps 00:00:00.041 4 647 kbps 00:00:00.000 25 339 bytes 269 230 bytes 00:00:01.000
2 0:00:12.554 0:00:26.484 19 620 kbps 43 146 kbps 00:00:18.435 39 945 kbps 00:00:14.514 28 573 kbps 00:00:13.513 102 290 bytes 430 203 bytes 00:00:17.600
3 0:00:39.038 0:00:01.000 1 211 kbps 0 kbps 00:00:00.000 0 kbps 00:00:00.000 0 kbps 00:00:00.000 6 586 bytes 6 586 bytes 00:00:39.080
STREAM DIAGNOSTICS:
File PID Type Codec Language Seconds Bitrate Bytes Packets
---- --- ---- ----- -------- -------------- -------------- ------------- -----
00002.M2TS 4113 (0x1011) 0x1B AVC 12,387 4 936 7 643 664 41 775
00002.M2TS 4352 (0x1100) 0x80 LPCM jpn (Japanese) 12,387 1 558 2 412 892 15 018
00003.M2TS 4113 (0x1011) 0x1B AVC 26,318 19 745 64 956 437 353 378
00003.M2TS 4352 (0x1100) 0x80 LPCM jpn (Japanese) 26,318 1 555 5 114 984 31 836
00012.M2TS 4113 (0x1011) 0x1B AVC 0,834 1 517 158 140 865
00012.M2TS 4352 (0x1100) 0x80 LPCM jpn (Japanese) 0,834 111 053 11 579 568 72 072
<---- END FORUMS PASTE ---->
QUICK SUMMARY:
Disc Title: GITS
Disc Size: 26 022 624 624 bytes
Protection: AACS
BD-Java: No
Playlist: 00001.MPLS
Size: 99 514 368 bytes
Length: 0:00:40
Total Bitrate: 19,88 Mbps
Video: MPEG-4 AVC Video / 14537 kbps / 1080p / 23,976 fps / 16:9 / High Profile 4.1
Audio: Japanese / LPCM Audio / 2.0 / 48 kHz / 1536 kbps / 16-bit


Последний раз редактировалось: outoforder (2015-05-01 21:25), всего редактировалось 2 раз(а)

Создавать темы 01-Май-2015 20:32

[Профиль]  [ЛС] 

outoforder ®

Стаж: 4 года 11 месяцев

Сообщений: 812

Симпатии: 172

Отсюда

Создавать темы 01-Май-2015 20:33

[Профиль]  [ЛС] 
Показать сообщения:    
Ответить на тему

Текущее время: 20-Окт 23:03

Часовой пояс: UTC + 5



Вы не можете начинать темы
Вы не можете отвечать на сообщения
Вы не можете редактировать свои сообщения
Вы не можете удалять свои сообщения
Вы не можете голосовать в опросах
Вы не можете прикреплять файлы к сообщениям
Вы не можете скачивать файлы