Лига выдающихся джентльменов (Стивен Норрингтон/Stephen Norrington) [2003, фантастика, фэнтези, боевик, приключения, DVDRip]

Ответить на тему
 

zolim ®

Стаж: 2 года 3 месяца

Сообщений: 1

Симпатии: 1

Лига выдающихся джентльменов / The League of Extraordinary Gentlemen

«Мощь лиги - в силе семерых»

Год выпуска: 2003
Страна: США, Германия, Чехия, Великобритания
Жанр: фантастика, фэнтези, боевик, приключения
Продолжительность: 01:45:33
Перевод: Профессиональный (полное дублирование)

Режиссер: Стивен Норрингтон/Stephen Norrington

В ролях: Шон Коннери, Насируддин Шах, Пета Уилсон, Тони Карран, Стюарт Таунсенд, Шэйн Уэст, Джейсон Флеминг, Ричард Роксбург, Макс РайанТом, Гудман-Хилл

Описание: Прославленный авантюрист Аллан Куотермейн вступает в борьбу с международным террористом по прозвищу Фантом и за собой ведёт целый выводок столь же примечательных джентльменов — капитана Немо, вампиршу Мину Харкер, человека-невидимку Родни Скиннера, тайного агента американского правительства Тома Сойера, бессмертного Дориана Грэя и доктора Джекила, время от времени перерождающегося в мистера Хайда. Дело в том, что Фантом собирается захватить бразды правления миром в свои руки, и для этого ему нужно поссорить нации между собой, развязав войну миров. А наши выдающиеся герои совместными усилиями должны обезвредить бандита…

-
Качество: DVDRip
Формат: AVI
Видео кодек: XviD
Аудио кодек: AC3
Видео: Xvid 672x288 25fps 1464kbps [V: mpeg4 advanced simple profile, yuv420p, 672x288, 1464 kb/s]
Аудио: Dolby AC3 48000Hz 6ch 384kbps [A: ac3, 48000 Hz, 5.1, 384 kb/s]

MI

Format : AVI
Format/Info : Audio Video Interleave
File size : 1.37 GiB
Duration : 1h 45mn
Overall bit rate : 1 855 Kbps
Movie name : Лига выдающихся джентльменов / League of Extraordinary Gentlemen, The (2003) DVDRip от ShareTorrents
Director : Bara5hka
Genre : Action/Fantasy
Writing application : VirtualDubMod 1.5.4.1 (build 2178/release)
Original source form/Name : Movie
Copyright : ..::ShareTorrents::..
Video
ID : 0
Format : MPEG-4 Visual
Format profile : Advanced [email protected]
Format settings, BVOP : 1
Format settings, QPel : No
Format settings, GMC : No warppoints
Format settings, Matrix : Custom
Codec ID : XVID
Codec ID/Hint : XviD
Duration : 1h 45mn
Bit rate : 1 464 Kbps
Width : 672 pixels
Height : 288 pixels
Display aspect ratio : 2.35:1
Frame rate : 25.000 fps
Color space : YUV
Chroma subsampling : 4:2:0
Bit depth : 8 bits
Scan type : Progressive
Compression mode : Lossy
Bits/(Pixel*Frame) : 0.303
Stream size : 1.08 GiB (79%)
Writing library : XviD 1.2.0.dev47 (UTC 2006-11-01)
Audio
ID : 1
Format : AC-3
Format/Info : Audio Coding 3
Mode extension : CM (complete main)
Format settings, Endianness : Big
Codec ID : 2000
Duration : 1h 45mn
Bit rate mode : Constant
Bit rate : 384 Kbps
Channel(s) : 6 channels
Channel positions : Front: L C R, Side: L R, LFE
Sampling rate : 48.0 KHz
Bit depth : 16 bits
Compression mode : Lossy
Delay relative to video : 15ms
Stream size : 290 MiB (21%)
Alignment : Split accross interleaves
Interleave, duration : 96 ms (2.40 video frames)
Interleave, preload duration : 96 ms


Создавать темы 01-Май-2015 22:53

[Профиль]  [ЛС] 
Показать сообщения:    
Ответить на тему

Текущее время: 17-Авг 14:50

Часовой пояс: UTC + 5



Вы не можете начинать темы
Вы не можете отвечать на сообщения
Вы не можете редактировать свои сообщения
Вы не можете удалять свои сообщения
Вы не можете голосовать в опросах
Вы не можете прикреплять файлы к сообщениям
Вы не можете скачивать файлы