Пятьдесят к одному / 50 to 1 (Джим Уилсон) [2014, США, драма, WEB-DLRip] Лицензия

Ответить на тему
 

Каротажник ®

Стаж: 4 года 1 месяц

Сообщений: 195

Симпатии: 211

Пятьдесят к одному/ 50 to 1 Страна: США
Жанр: драма--Год выпуска: 2014
Продолжительность: 01:50:52--Перевод: Профессиональное (многоголосое) [iTunes]
Режиссер: Джим Уилсон
В ролях: Скит Ульрих, Кристиан Кэйн, Уильям Дивэйн, Мэдлин Дойч, Тодд Лоу, Дэвид Эткинсон, Кэлвин Борел, Брюс Экелман, Хьюго Перез, Элой Касадос--Описание: США, 2000-е годы. Талантливый и опытный наездник Калвин Борел на регулярной основе принимает участие в скачках штата Кентукки. Несмотря на его огромный опыт, он так и не нашел себе скакуна, который не только отвечал бы его ожиданиям, но и стал настоящим единомышленником, партнером, другом. Тем временем на одной из провинциальных конюшен рождается красивейшая лошадь чистокровной породы. Она легкая, быстрая, изящная, за что сразу получает кличку «Моя птичка». Узнав о ее существовании, Борел немедленно ее выкупает и заявляет свое участие во всемирно известных скачках «Кентукки-Дерби». Шансы к победе — всего пятьдесят к одному, но Борел считает, что они не имеют права сдаваться.-- 
--Качество видео: WEB-DLRip
Формат видео: AVI--Видео: Xvid 720x400 23.976fps 1802kbps
Аудио: Russian: AC3, 384 kb/s (6 ch)
Аудио 2: English: AC3, 448 kb/s (6 ch)

MediaInfo

General
Complete name : E:\kino\russ\Pedysyat.k.odnomy.2014.P.WEB-DLRip.2100MB.avi
Format : AVI
Format/Info : Audio Video Interleave
Format profile : OpenDML
File size : 2.05 GiB
Duration : 1h 50mn
Overall bit rate : 2 653 Kbps
Writing application : VirtualDubMod 1.5.10.3 | www.virtualdub-fr.org || (build 2550/release)
Writing library : VirtualDubMod build 2550/release
Video
ID : 0
Format : MPEG-4 Visual
Format profile : Advanced [email protected]
Format settings, BVOP : Yes
Format settings, QPel : No
Format settings, GMC : No warppoints
Format settings, Matrix : Default (MPEG)
Codec ID : XVID
Codec ID/Hint : XviD
Duration : 1h 50mn
Bit rate : 1 802 Kbps
Width : 720 pixels
Height : 400 pixels
Display aspect ratio : 16:9
Frame rate : 23.976 fps
Color space : YUV
Chroma subsampling : 4:2:0
Bit depth : 8 bits
Scan type : Progressive
Compression mode : Lossy
Bits/(Pixel*Frame) : 0.261
Stream size : 1.40 GiB (68%)
Writing library : XviD 1.2.1 (UTC 2008-12-04)
Audio #1
ID : 1
Format : AC-3
Format/Info : Audio Coding 3
Mode extension : CM (complete main)
Format settings, Endianness : Big
Codec ID : 2000
Duration : 1h 50mn
Bit rate mode : Constant
Bit rate : 384 Kbps
Channel(s) : 6 channels
Channel positions : Front: L C R, Side: L R, LFE
Sampling rate : 48.0 KHz
Bit depth : 16 bits
Compression mode : Lossy
Stream size : 304 MiB (14%)
Alignment : Split accross interleaves
Interleave, duration : 42 ms (1.00 video frame)
Interleave, preload duration : 500 ms
Audio #2
ID : 2
Format : AC-3
Format/Info : Audio Coding 3
Mode extension : CM (complete main)
Format settings, Endianness : Big
Codec ID : 2000
Duration : 1h 50mn
Bit rate mode : Constant
Bit rate : 448 Kbps
Channel(s) : 6 channels
Channel positions : Front: L C R, Side: L R, LFE
Sampling rate : 48.0 KHz
Bit depth : 16 bits
Compression mode : Lossy
Stream size : 355 MiB (17%)
Alignment : Split accross interleaves
Interleave, duration : 42 ms (1.00 video frame)
Interleave, preload duration : 500 ms

Скриншоты



Создавать темы 02-Май-2015 17:03

[Профиль]  [ЛС] 

Lolzsch

Стаж: 2 года 8 месяцев

Сообщений: 51

Симпатии: 196

Complete name : E:\kino\russ\Pedysyat.k.odnomy.2014.P.WEB-DLRip.2100MB.avi
Странное у вас мнение о русском кино =)
А так качнём-с =)

Создавать темы 02-Май-2015 18:25

[Профиль]  [ЛС] 

axeman

Стаж: 5 лет

Сообщений: 380

Симпатии: 50

934360Complete name : E:\kino\russ\Pedysyat.k.odnomy.2014.P.WEB-DLRip.2100MB.avi
Странное у вас мнение о русском кино =)
А так качнём-с =)
Это же "мираж" тебе показалось

Создавать темы 09-Май-2015 12:12

[Профиль]  [ЛС] 
Показать сообщения:    
Ответить на тему

Текущее время: 21-Ноя 09:36

Часовой пояс: UTC + 5



Вы не можете начинать темы
Вы не можете отвечать на сообщения
Вы не можете редактировать свои сообщения
Вы не можете удалять свои сообщения
Вы не можете голосовать в опросах
Вы не можете прикреплять файлы к сообщениям
Вы не можете скачивать файлы