Рок в летнем лагере 2: Отчётный концерт / Camp Rock 2: The Final Jam (Пол Хоэн / Paul Hoen) [2010, США, Мелодрама, Мюзикл, Семейный, Комедия, BDRip] (MVO)

Ответить на тему
 

Бахытберген ®

Стаж: 4 года 3 месяца

Сообщений: 66

Симпатии: 18

Рок в летнем лагере 2: Отчётный концерт / Camp Rock 2: The Final Jam
Страна: США
Жанр: Мелодрама, Мюзикл, Семейный, Комедия
Год выпуска: 2010
Продолжительность: 01:44:10
Перевод: Профессиональный (многоголосый закадровый)
Cубтитры: нет
Режиссер: Пол Хоэн / Paul Hoen
В ролях: Деми Ловато (Demi Lovato), Джо Джонас (Joe Jonas), Ник Джонас (Nick Jonas), Кевин Джонас (Kevin Jonas), Дэниэл Фазерс (Daniel Fathers), Дэниэл Кэш (Daniel Cash), Мария Кэнелс-Баррера (Maria Canals-Barrera), Хлоя Бриджес (Chloe Bridges), Мэттью «Мдот» Финли (Matthew "M'dot" Finley), Меган Йётте Мартин (Meaghan Jette Martin), Элисон Стоунер (Alyson Stoner), Анна Мария Перез де Тагл (Anna Maria Perez de Tagle), Жасмин Ричардс (Jasmine Richards), Джордан Френсис (Jordan Francis), Рошон Феган (Roshon Fegan) и др.
Описание: Митчи, Шейн, Джейсон, Нейт и их друзья возвращаются в музыкальный лагерь «Саmр Rock», чтобы весело провести еще одни летние каникулы. Однако вскоре они узнают, что на другом берегу озера открыл свои двери новый современный лагерь для юных музыкантов «Саmр Star», переманив к себе многих вожатых, преподавателей и ребят из их родного лагеря.
Будущее летнего лагеря «Саmр Rock» под угрозой. В довершение всего Люк Уильямс, самый крутой исполнитель из «Саmр Star», предлагает устроить состязание между лагерями, чтобы определить самого талантливого музыканта. Ребята начинаютготовиться к решающей битве, в то время как Нейт влюбляется в дочь владельца лагеря-соперника…
Качество видео: BDRip
Формат видео: AVI
Видео: 720x400 (1.80:1), 23.976 fps, XviD build 65 ~1793 kbps avg, 0.26 bit/pixel
Аудио: 48 kHz, AC3 Dolby Digital, 2/0 (L,R) ch, ~192 kbps avg (RUS)

MediaInfo

General
Complete name : D:\Фильмы\Camp Rock 2. The Final Jam (2010).avi
Format : AVI
Format/Info : Audio Video Interleave
File size : 1.46 GiB
Duration : 1h 44mn
Overall bit rate : 2 009 Kbps
Writing application : VirtualDubMod 1.5.10.2 (build 2540/release)
Writing library : VirtualDubMod build 2540/release
Video
ID : 0
Format : MPEG-4 Visual
Format profile : Advanced [email protected]
Format settings, BVOP : 1
Format settings, QPel : No
Format settings, GMC : No warppoints
Format settings, Matrix : Custom
Codec ID : XVID
Codec ID/Hint : XviD
Duration : 1h 44mn
Bit rate : 1 610 Kbps
Width : 720 pixels
Height : 400 pixels
Display aspect ratio : 16:9
Frame rate : 23.976 fps
Color space : YUV
Chroma subsampling : 4:2:0
Bit depth : 8 bits
Scan type : Progressive
Compression mode : Lossy
Bits/(Pixel*Frame) : 0.233
Stream size : 1.17 GiB (80%)
Writing library : XviD 1.2.1 (UTC 2008-12-04)
Audio #1
ID : 1
Format : AC-3
Format/Info : Audio Coding 3
Mode extension : CM (complete main)
Format settings, Endianness : Big
Codec ID : 2000
Duration : 1h 44mn
Bit rate mode : Constant
Bit rate : 192 Kbps
Channel(s) : 2 channels
Channel positions : Front: L R
Sampling rate : 48.0 KHz
Compression mode : Lossy
Stream size : 143 MiB (10%)
Alignment : Split accross interleaves
Interleave, duration : 42 ms (1.00 video frame)
Interleave, preload duratio : 500 ms
Audio #2
ID : 2
Format : AC-3
Format/Info : Audio Coding 3
Mode extension : CM (complete main)
Format settings, Endianness : Big
Codec ID : 2000
Duration : 1h 44mn
Bit rate mode : Constant
Bit rate : 192 Kbps
Channel(s) : 6 channels
Channel positions : Front: L C R, Side: L R, LFE
Sampling rate : 48.0 KHz
Compression mode : Lossy
Stream size : 143 MiB (10%)
Alignment : Split accross interleaves
Interleave, duration : 42 ms (1.00 video frame)
Interleave, preload duratio : 500 ms

Скриншот c названием фильма

Скриншоты





Создавать темы 02-Май-2015 19:22

[Профиль]  [ЛС] 
Показать сообщения:    
Ответить на тему

Текущее время: 24-Авг 00:33

Часовой пояс: UTC + 5



Вы не можете начинать темы
Вы не можете отвечать на сообщения
Вы не можете редактировать свои сообщения
Вы не можете удалять свои сообщения
Вы не можете голосовать в опросах
Вы не можете прикреплять файлы к сообщениям
Вы не можете скачивать файлы