Рок в летнем лагере / Camp Rock (Мэттью Даймонд / Matthew Diamond) [2008, США, Мюзикл, Мелодрама, Комедия, Семейный, BDRip] (MVO)

Ответить на тему
 

Бахытберген ®

Стаж: 4 года 3 месяца

Сообщений: 66

Симпатии: 18

Рок в летнем лагере / Camp Rock
Страна: США
Жанр: Мюзикл, Мелодрама, Комедия, Семейный
Год выпуска: 2008
Продолжительность: 01:38:35
Перевод: Профессиональный (многоголосый закадровый)
Cубтитры: нет
Режиссер: Мэттью Даймонд / Matthew Diamond
В ролях: Деми Ловато (Demi Lovato), Джо Джонас (Joe Jonas), Меган Йётте Мартин (Meaghan Jette Martin), Мария Кэнелс-Баррера (Maria Canals-Barrera), Элисон Стоунер (Alyson Stoner), Джули Браун (Julie Brown), Дэниэл Фазерс (Daniel Fathers), Анна Мария Перез де Тагл (Anna Maria Perez de Tagle), Жасмин Ричардс (Jasmine Richards), Джордан Френсис (Jordan Francis), Рошон Феган (Roshon Fegan) и др.
Описание: Участники поп-группы Connect 3, Нейт и Джейсон, решают помочь своему коллеге Шейну избавиться от «плохого» имиджа рок-звезды и отправляют его в качестве наставника в летний музыкальный лагерь.
Там же оказывается Митчи Торрес — девушка с поразительным голосом и большим желанием стать популярной певицей. Единственный шанс для Митчи провести целое лето в дорогостоящем лагере — это подрабатывать в местной столовой в перерывах между занятиями.
Однажды сквозь закрытые двери Шейн слышит пение Митчи и решает выяснить, кто же из обитателей лагеря обладает таким прекрасным голосом.
Качество видео: BDRip
Формат видео: AVI
Видео: 740x400 (1.76:1), 23.976 fps, XviD build 65 ~1713 kbps avg, 0.25 bit/pixel
Аудио: 48 kHz, AC3 Dolby Digital, 3/2 (L,C,R,l,r) + LFE ch, ~384 kbps avg (DUB) R5

MediaInfo

General
Complete name : D:\Фильмы\Camp Rock (2008).avi
Format : AVI
Format/Info : Audio Video Interleave
File size : 1.57 GiB
Duration : 1h 38mn
Overall bit rate : 2 273 Kbps
Writing application : VirtualDubMod 1.5.10.3 | www.virtualdub-fr.org || (build 2550/release)
Writing library : VirtualDubMod build 2550/release
Video
ID : 0
Format : MPEG-4 Visual
Format profile : Advanced [email protected]
Format settings, BVOP : 1
Format settings, QPel : No
Format settings, GMC : No warppoints
Format settings, Matrix : Default (MPEG)
Codec ID : XVID
Codec ID/Hint : XviD
Duration : 1h 38mn
Bit rate : 1 619 Kbps
Width : 720 pixels
Height : 400 pixels
Display aspect ratio : 16:9
Frame rate : 23.976 fps
Color space : YUV
Chroma subsampling : 4:2:0
Bit depth : 8 bits
Scan type : Progressive
Compression mode : Lossy
Bits/(Pixel*Frame) : 0.234
Stream size : 1.11 GiB (71%)
Writing library : XviD 1.2.0.dev47 (UTC 2006-11-01)
Audio #1
ID : 1
Format : AC-3
Format/Info : Audio Coding 3
Mode extension : CM (complete main)
Format settings, Endianness : Big
Codec ID : 2000
Duration : 1h 38mn
Bit rate mode : Constant
Bit rate : 192 Kbps
Channel(s) : 2 channels
Channel positions : Front: L R
Sampling rate : 48.0 KHz
Compression mode : Lossy
Stream size : 135 MiB (8%)
Alignment : Split accross interleaves
Interleave, duration : 42 ms (1.00 video frame)
Interleave, preload duratio : 500 ms
Audio #2
ID : 2
Format : AC-3
Format/Info : Audio Coding 3
Mode extension : CM (complete main)
Format settings, Endianness : Big
Codec ID : 2000
Duration : 1h 38mn
Bit rate mode : Constant
Bit rate : 448 Kbps
Channel(s) : 6 channels
Channel positions : Front: L C R, Side: L R, LFE
Sampling rate : 48.0 KHz
Compression mode : Lossy
Stream size : 316 MiB (20%)
Alignment : Split accross interleaves
Interleave, duration : 42 ms (1.00 video frame)
Interleave, preload duratio : 500 ms

Скриншот c названием фильма

Скриншоты





Создавать темы 02-Май-2015 19:34

[Профиль]  [ЛС] 
Показать сообщения:    
Ответить на тему

Текущее время: 22-Авг 02:47

Часовой пояс: UTC + 5



Вы не можете начинать темы
Вы не можете отвечать на сообщения
Вы не можете редактировать свои сообщения
Вы не можете удалять свои сообщения
Вы не можете голосовать в опросах
Вы не можете прикреплять файлы к сообщениям
Вы не можете скачивать файлы