Агент / Поворот, 2 сезон 1-7 серия из 10 / TURN [BaibaKo] (Ник Копус, Руперт Уайатт) [2015, драма, военный, WEB-DLRip, P]

Ответить на тему
 

GRIMM ®

Стаж: 6 лет 8 месяцев

Сообщений: 811

Симпатии: 172

Агент / Поворот
Сезон 2 Серия 1-7

-Год выпуска: 2015
Страна: США
Жанр: драма, военный
Продолжительность: ~ 00:45:00
Перевод: Профессиональный многоголосый закадровый [BaibaKo]-Режиссёр: Ник Копус, Руперт Уайатт-В ролях: Джейми Белл, Хезер Линд, Сэмюэл Рукин, Тимоти Брукс, Сет Нумрик, Дэниэл Хеншэлл, Миган Уорнер, Кевин МакНэлли, Энгус Макфадьен, Джей Джей Филд-Описание: События, основанные на книге писателя и историка Александра Роуза, сериала «Поворот» (Turn) происходят в 1778 году. Нью-йоркский фермер, который живет на захваченном британцами острове Лонг-Айленд, решает помочь своим соотечественникам в борьбе за независимость. Герой сериала собирает вокруг себя группу друзей детства, с помощью которых организовывает шпионскую сеть, призванную предоставлять информацию Джорджу Вашингтону. Эта удивительная успешная шпионская сеть в конце концов оказала огромное влияние на ход американской войны за независимость.-Качество: WEB-DLRip
Формат: AVI
Видео кодек: XviD
Аудио кодек: MP3
Видео: 720x400 (1.80:1), 23.976 fps, XviD MPEG-4 ~1506 kbps avg, 0.218 bit/pixel
Аудио #1 Rus: 48 kHz, MPEG Layer 3, 2 ch, ~192.00 kbps avg
Аудио #2 Eng: 48 kHz, MPEG Layer 3, 2 ch, ~192.00 kbps avg

MediaInfo

Format : AVI
Format/Info : Audio Video Interleave
File size : 581 MiB
Duration : 42mn 55s
Overall bit rate : 1 892 Kbps
Writing application : VirtualDubMod 1.5.10.3 | www.virtualdub-fr.org || (build 2550/release)
Writing library : VirtualDubMod build 2550/release
Video
ID : 0
Format : MPEG-4 Visual
Format profile : Advanced [email protected]
Format settings, BVOP : Yes
Format settings, QPel : No
Format settings, GMC : No warppoints
Format settings, Matrix : Default (H.263)
Codec ID : DX50
Codec ID/Hint : DivX 5
Duration : 42mn 55s
Bit rate : 1 499 Kbps
Width : 720 pixels
Height : 400 pixels
Display aspect ratio : 16:9
Frame rate : 23.976 fps
Color space : YUV
Chroma subsampling : 4:2:0
Bit depth : 8 bits
Scan type : Progressive
Compression mode : Lossy
Bits/(Pixel*Frame) : 0.217
Stream size : 460 MiB (79%)
Writing library : XviD 73
Audio
ID : 1
Format : AC-3
Format/Info : Audio Coding 3
Mode extension : CM (complete main)
Format settings, Endianness : Big
Codec ID : 2000
Duration : 42mn 55s
Bit rate mode : Constant
Bit rate : 384 Kbps
Channel count : 6 channels
Channel positions : Front: L C R, Side: L R, LFE
Sampling rate : 48.0 KHz
Bit depth : 16 bits
Compression mode : Lossy
Stream size : 118 MiB (20%)
Alignment : Split accross interleaves
Interleave, duration : 42 ms (1.00 video frame)
Interleave, preload duration : 500 ms

Скриншоты





Последний раз редактировалось: GRIMM (2015-05-23 02:25), всего редактировалось 2 раз(а)

Создавать темы 02-Май-2015 22:04

[Профиль]  [ЛС] 

GRIMM ®

Стаж: 6 лет 8 месяцев

Сообщений: 811

Симпатии: 172

Добавил 5 серию

Создавать темы 08-Май-2015 09:49

[Профиль]  [ЛС] 

GRIMM ®

Стаж: 6 лет 8 месяцев

Сообщений: 811

Симпатии: 172

Добавил 6 серию

Создавать темы 17-Май-2015 01:05

[Профиль]  [ЛС] 

GRIMM ®

Стаж: 6 лет 8 месяцев

Сообщений: 811

Симпатии: 172

Добавил 7 серию

Создавать темы 23-Май-2015 02:26

[Профиль]  [ЛС] 
Показать сообщения:    
Ответить на тему

Текущее время: 26-Сен 22:17

Часовой пояс: UTC + 5



Вы не можете начинать темы
Вы не можете отвечать на сообщения
Вы не можете редактировать свои сообщения
Вы не можете удалять свои сообщения
Вы не можете голосовать в опросах
Вы не можете прикреплять файлы к сообщениям
Вы не можете скачивать файлы