CSI: Киберпространство / CSI: Cyber / Сезон: 1 / Серии: 1-13 из 13 (Дермотт Даунс, Эрик Ла Салль, Джефф Т. Томас) [2015, драма, криминал, WEB-DLRip] DVO (HamsterStudio) + Original

Ответить на тему
 

GRIMM ®

Стаж: 6 лет 10 месяцев

Сообщений: 811

Симпатии: 172

CSI: Киберпространство / CSI: Cyber
Сезон 1 Серия 1-13

-Год выпуска: 2015
Страна: США
Жанр: драма, криминал
Продолжительность: ~ 00:45:00
Перевод: Любительский двухголосый закадровый HamsterStudio-Режиссёр: Дермотт Даунс, Эрик Ла Салль, Джефф Т. Томас-В ролях: Патриция Аркетт, Джеймс Ван Дер Бик, Чарли Кунц, Бау Вау, Хейли Кийоко, Питер МакНикол, Майкл Ирби, Гэбриел Бака, Джонатан Максвелл Уилкокс, Темина Санни-Описание: Технологии изменили наш мир до такой степени, что безликие преступники совершают злодеяния глобального масштаба одним нажатием кнопки. Специальный агент Эвери Райан должна раскрывать преступления, которые зарождаются в головах, происходят онлайн и отражаются на реальном мире.-Качество: WEB-DLRip
Формат: AVI
Видео кодек: XviD
Аудио кодек: MP3
Видео: XviD, 720x400, 23.976 fps, 1 824 Kbps
Аудио: MP3, 48.0 KHz, 2 channels, 128 Kbps [Rus]
Аудио: MP3, 48.0 KHz, 2 channels, 128 Kbps [Eng]

MediaInfo

General
Complete name : /home/roma/Відео/CSI: Киберпространство/CSI.Cyber.S01E01.WEB-DLRip.HamsterStudio.org.avi
Format : AVI
Format/Info : Audio Video Interleave
File size : 636 MiB
Duration : 42mn 26s
Overall bit rate : 2 094 Kbps
Writing application : VirtualDubMod 1.5.10.2 (build 2540/release)
Writing library : VirtualDubMod build 2540/release
Video
ID : 0
Format : MPEG-4 Visual
Format profile : Advanced [email protected]
Format settings, BVOP : 2
Format settings, QPel : No
Format settings, GMC : No warppoints
Format settings, Matrix : Default (MPEG)
Codec ID : XVID
Codec ID/Hint : XviD
Duration : 42mn 26s
Bit rate : 1 824 Kbps
Width : 720 pixels
Height : 400 pixels
Display aspect ratio : 16:9
Frame rate : 23.976 fps
Color space : YUV
Chroma subsampling : 4:2:0
Bit depth : 8 bits
Scan type : Progressive
Compression mode : Lossy
Bits/(Pixel*Frame) : 0.264
Stream size : 554 MiB (87%)
Writing library : XviD 1.2.1 (UTC 2008-12-04)
Audio #1
ID : 1
Format : MPEG Audio
Format version : Version 1
Format profile : Layer 3
Mode : Joint stereo
Mode extension : MS Stereo
Codec ID : 55
Codec ID/Hint : MP3
Duration : 42mn 26s
Bit rate mode : Constant
Bit rate : 128 Kbps
Channel(s) : 2 channels
Sampling rate : 48.0 KHz
Compression mode : Lossy
Stream size : 38.9 MiB (6%)
Alignment : Aligned on interleaves
Interleave, duration : 42 ms (1.00 video frame)
Interleave, preload duration : 504 ms
Audio #2
ID : 2
Format : MPEG Audio
Format version : Version 1
Format profile : Layer 3
Mode : Joint stereo
Mode extension : MS Stereo
Codec ID : 55
Codec ID/Hint : MP3
Duration : 42mn 26s
Bit rate mode : Constant
Bit rate : 128 Kbps
Channel(s) : 2 channels
Sampling rate : 48.0 KHz
Compression mode : Lossy
Stream size : 38.9 MiB (6%)
Alignment : Aligned on interleaves
Interleave, duration : 42 ms (1.00 video frame)
Interleave, preload duration : 504 ms

Скриншоты





Последний раз редактировалось: GRIMM (2015-08-04 22:45), всего редактировалось 13 раз(а)

Создавать темы 02-Май-2015 22:24

[Профиль]  [ЛС] 

GRIMM ®

Стаж: 6 лет 10 месяцев

Сообщений: 811

Симпатии: 172

Озвучку чуть позже заменю

Создавать темы 02-Май-2015 22:25

[Профиль]  [ЛС] 

Twista

Стаж: 5 лет 10 месяцев

Сообщений: 156

Симпатии: 15

934387Озвучку чуть позже заменю
если не сложно уточни с какой на какую ? или уже заменили ?

_________________
Подпись отключена за нарушение правил форума

Создавать темы 03-Май-2015 00:16

[Профиль]  [ЛС] 

GRIMM ®

Стаж: 6 лет 10 месяцев

Сообщений: 811

Симпатии: 172

1 и 2 серию заменю на HamsterStudio

Создавать темы 03-Май-2015 07:20

[Профиль]  [ЛС] 

GRIMM ®

Стаж: 6 лет 10 месяцев

Сообщений: 811

Симпатии: 172

Добавил 3-4-5 серию (Озвучка заменена на Hamsterstudio)

Создавать темы 31-Май-2015 22:29

[Профиль]  [ЛС] 

GRIMM ®

Стаж: 6 лет 10 месяцев

Сообщений: 811

Симпатии: 172

Добавил 6 серию

Создавать темы 04-Июн-2015 23:57

[Профиль]  [ЛС] 

GRIMM ®

Стаж: 6 лет 10 месяцев

Сообщений: 811

Симпатии: 172

Добавил 7 серию

Создавать темы 08-Июн-2015 22:35

[Профиль]  [ЛС] 

GRIMM ®

Стаж: 6 лет 10 месяцев

Сообщений: 811

Симпатии: 172

Добавил 8 серию

Создавать темы 23-Июн-2015 20:30

[Профиль]  [ЛС] 

GRIMM ®

Стаж: 6 лет 10 месяцев

Сообщений: 811

Симпатии: 172

Добавил 9 серию

Создавать темы 11-Июл-2015 17:17

[Профиль]  [ЛС] 

GRIMM ®

Стаж: 6 лет 10 месяцев

Сообщений: 811

Симпатии: 172

Добавил 10 серию

Создавать темы 13-Июл-2015 17:15

[Профиль]  [ЛС] 

GRIMM ®

Стаж: 6 лет 10 месяцев

Сообщений: 811

Симпатии: 172

Добавил 11 серию

Создавать темы 25-Июл-2015 21:12

[Профиль]  [ЛС] 

GRIMM ®

Стаж: 6 лет 10 месяцев

Сообщений: 811

Симпатии: 172

Добавил 12-13 серию ФИНАЛ СЕЗОНА

Создавать темы 31-Июл-2015 18:37

[Профиль]  [ЛС] 
Показать сообщения:    
Ответить на тему

Текущее время: 24-Ноя 12:34

Часовой пояс: UTC + 5



Вы не можете начинать темы
Вы не можете отвечать на сообщения
Вы не можете редактировать свои сообщения
Вы не можете удалять свои сообщения
Вы не можете голосовать в опросах
Вы не можете прикреплять файлы к сообщениям
Вы не можете скачивать файлы