Другая я / Another Me (Изабель Койшет, Cathy MacPhail) [2013, Великобритания, Испания, Триллер, детектив, BDRip] [Фильмы для iPod, iPhone, iPad] (MVO) (Sub Rus + Original Eng)

Ответить на тему
 

Umrbek 1979 ®

Стаж: 6 лет 4 месяца

Сообщений: 12

Симпатии: 4

Другая я / Another Me
Страна: Великобритания, Испания
Жанр: Триллер, детектив
Год выпуска: 2013
Продолжительность: 01:24:26
Перевод: Профессиональный (многоголосый закадровый)
Cубтитры: русские
Оригинальная аудиодорожка: английский
Режиссер: Изабель Койшет, Cathy MacPhail
В ролях: Софи Тернер, Джонатан Риз Майерс, Клэр Форлани, Грегг Салкин, Рис Иванс, Ивана Бакеро, Джеральдин Чаплин, Леонор Уотлинг, Мелани Уолтерс, Сара Грегори
Описание: Сюжет вращается вокруг молодой английской девушки по имени Фей. Вдруг в ее жизни начинают происходить очень странные явления, сродни паранормальным. Ее, казалось бы, идеальная жизнь быстро идет под откос, когда она начинает подозревать, что ее преследует таинственный "двойник", который пытается украсть не только ее личность, но и жизнь.
Доп. информация: Мировая премьера: 15 ноября 2013
Качество видео: BDRip
Формат видео: MKV
Видео: H.264, 1024x560, 1.85:1, 2 200 Kbps, 23.976 fps
Аудио: Русский/Многоголосый закадровый , AAC / 2.0 / 126 Kbps / 48.0 KHz
Аудио 2: Английский/Оригинальная дорожка , AAC / 2.0 / 132 Kbps / 48.0 KHz

MediaInfo

General
Complete name : C:\\Handbrake\\Another.me.(SD).(pk).m4v
Format : MPEG-4
Codec ID : M4V
File size : 1.45 GiB
Duration : 1h 24mn
Overall bit rate mode : Variable
Overall bit rate : 2 454 Kbps
Movie name : Another Me
Performer : Isabel Coixet
Director : Изабель Койшет
Actor : Софи Тернер / Джонатан Риз Майерс / Клэр Форлани / Грегг Салкин / Рис Иванс / Ивана Бакеро / Джеральдин Чаплин / Леонор Уотлинг / Мелани Уолтерс / Сара Грегори
Screenplay by : Изабель Койшет / Cathy MacPhail
Producer : Мариэла Бесуевски / Николь Кармен-Дэвис / Ребека Джилбертсон
Genre : Thriller
ContentType : Short Film
Description : Красивую молодую девушку преследует ее тайное прошлое.
Recorded date : UTC 2013-11-15 08:00:00
Encoded date : UTC 2014-11-23 10:20:27
Tagged date : UTC 2014-11-23 10:21:04
Writing application : MkvToMp4 [www.mkvtomp4.ru] version 0.222
Copyright : © 2014 Twentieth Century Fox Film Corporation. All rights reserved.
Service name : AOL
Cover : Yes
Title/Sort : Another Me
LongDescription : Сюжет вращается вокруг молодой английской девушки по имени Фей. Вдруг в ее жизни начинают происходить очень странные явления, сродни паранормальным. Ее, казалось бы, идеальная жизнь быстро идет под откос, когда она начинает подозревать, что ее преследует таинственный "двойник", который пытается украсть не только ее личность, но и жизнь.
AppleStoreAccountType : AOL
AppleStoreCountry : Unknown Country
AppleStoreCatalogID : 915208650
Vendor : Apple:vendor_id:2013-577597
ContentRating : mpaa|PG-13|300|
Video
ID : 1
Format : AVC
Format/Info : Advanced Video Codec
Format profile : [email protected]
Format settings, CABAC : Yes
Format settings, ReFrames : 9 frames
Codec ID : avc1
Codec ID/Info : Advanced Video Coding
Duration : 1h 24mn
Bit rate : 2 200 Kbps
Maximum bit rate : 30.8 Mbps
Width : 1 024 pixels
Height : 560 pixels
Display aspect ratio : 1.85:1
Frame rate mode : Variable
Frame rate : 23.976 fps
Minimum frame rate : 8.000 fps
Maximum frame rate : 24.390 fps
Color space : YUV
Chroma subsampling : 4:2:0
Bit depth : 8 bits
Scan type : Progressive
Bits/(Pixel*Frame) : 0.160
Stream size : 1.30 GiB (89%)
Writing library : x264 core 130 r2273 b3065e6
Encoding settings : cabac=1 / ref=9 / deblock=1:0:0 / analyse=0x3:0x113 / me=umh / subme=9 / psy=1 / psy_rd=1.00:0.00 / mixed_ref=1 / me_range=32 / chroma_me=1 / trellis=1 / 8x8dct=1 / cqm=0 / deadzone=21,11 / fast_pskip=1 / chroma_qp_offset=-2 / threads=12 / lookahead_threads=1 / sliced_threads=0 / nr=0 / decimate=1 / interlaced=0 / bluray_compat=0 / constrained_intra=0 / bframes=6 / b_pyramid=2 / b_adapt=2 / b_bias=0 / direct=1 / weightb=1 / open_gop=0 / weightp=2 / keyint=240 / keyint_min=24 / scenecut=40 / intra_refresh=0 / rc_lookahead=40 / rc=2pass / mbtree=1 / bitrate=2200 / ratetol=1.0 / qcomp=0.60 / qpmin=0 / qpmax=69 / qpstep=4 / cplxblur=20.0 / qblur=0.5 / ip_ratio=1.40 / aq=1:1.00
Language : English
Encoded date : UTC 2014-11-23 10:20:27
Tagged date : UTC 2014-11-23 10:20:43
Color primaries : BT.709
Transfer characteristics : BT.709
Matrix coefficients : BT.709
Color range : Limited
Audio #1
ID : 2
Format : AAC
Format/Info : Advanced Audio Codec
Format profile : LC
Codec ID : 40
Duration : 1h 24mn
Bit rate mode : Variable
Bit rate : 126 Kbps
Maximum bit rate : 183 Kbps
Channel(s) : 2 channels
Channel positions : Front: L R
Sampling rate : 48.0 KHz
Compression mode : Lossy
Stream size : 76.4 MiB (5%)
Language : Russian
Encoded date : UTC 2014-11-23 10:20:41
Tagged date : UTC 2014-11-23 10:20:43
Audio #2
ID : 3
Format : AAC
Format/Info : Advanced Audio Codec
Format profile : LC
Codec ID : 40
Duration : 1h 24mn
Bit rate mode : Variable
Bit rate : 132 Kbps
Maximum bit rate : 184 Kbps
Channel(s) : 2 channels
Channel positions : Front: L R
Sampling rate : 48.0 KHz
Compression mode : Lossy
Stream size : 78.9 MiB (5%)
Language : English
Encoded date : UTC 2014-11-23 10:20:42
Tagged date : UTC 2014-11-23 10:20:43
Text
ID : 4
Format : Timed Text
Muxing mode : sbtl
Codec ID : tx3g
Duration : 1h 16mn
Bit rate mode : Variable
Bit rate : 74 bps
Stream size : 41.6 KiB (0%)
Language : Russian
Encoded date : UTC 2014-11-23 10:20:43
Tagged date : UTC 2014-11-23 10:20:43
Menu
ID : 5
Codec ID : text
Duration : 1h 24mn
Encoded date : UTC 2014-11-23 10:21:00
Tagged date : UTC 2014-11-23 10:21:00
Bit rate mode : CBR
00:00:00.000 : Chapter 1
00:09:35.074 : Chapter 2
00:19:11.900 : Chapter 3
00:30:42.423 : Chapter 4
00:41:23.897 : Chapter 5
00:56:04.693 : Chapter 6
01:03:01.317 : Chapter 7
01:12:33.138 : Chapter 8
01:16:43.846 : Chapter 9

Скриншоты





Последний раз редактировалось: Umrbek 1979 (2015-05-03 15:07), всего редактировалось 3 раз(а)

Создавать темы 03-Май-2015 09:33

[Профиль]  [ЛС] 

Umrbek 1979 ®

Стаж: 6 лет 4 месяца

Сообщений: 12

Симпатии: 4

приятного просмотра

Создавать темы 03-Май-2015 09:36

[Профиль]  [ЛС] 

Umrbek 1979 ®

Стаж: 6 лет 4 месяца

Сообщений: 12

Симпатии: 4

модраторы где вы

Создавать темы 03-Май-2015 13:36

[Профиль]  [ЛС] 

Топик был перенесен из форума Фильмы за 2010-2013 в форум HD-AVC
Mixer City

Создавать темы 03-Май-2015 14:19

 

Mixer City

Стаж: 6 лет 11 месяцев

Сообщений: 754

Симпатии: 63

Umrbek 1979, скриншоты нужно в полном размере поставить.

Создавать темы 03-Май-2015 14:20

[Профиль]  [ЛС] 

Umrbek 1979 ®

Стаж: 6 лет 4 месяца

Сообщений: 12

Симпатии: 4

скриншоты нужно в полном размере поставить.
спасибо

Создавать темы 03-Май-2015 15:25

[Профиль]  [ЛС] 
Показать сообщения:    
Ответить на тему

Текущее время: 22-Ноя 23:35

Часовой пояс: UTC + 5



Вы не можете начинать темы
Вы не можете отвечать на сообщения
Вы не можете редактировать свои сообщения
Вы не можете удалять свои сообщения
Вы не можете голосовать в опросах
Вы не можете прикреплять файлы к сообщениям
Вы не можете скачивать файлы