Атака титанов / Shingeki no Kyojin (Араки Тэцуро) [TV] [без хардсаба] [01-25 из 25] [RUS(int), JAP+SUB] [2013 г.,приключения, фэнтези, драма, сёнэн, BDRip] [720p]

Ответить на тему
 

SoluSoull ®

Стаж: 2 года 7 месяцев

Сообщений: 379

Симпатии: 452

Shingeki no Kyojin
Атака титанов-Производство: Япония
Год выпуска: 2013
Жанр: приключения, фэнтези, драма
Тип: ТВ (25 эп.), 25 мин.-Перевод:
Озвучка от много кого
Субтитры от GMC (полные и надписи)-Режиссёр: Араки Тэцуро
Автор оригинала: Исаяма Хадзимэ
Студии: Wit Studio & Production I.G-Описание: Вместо прогресса человечество оказалось отброшено назад появлением расы гигантов. Огромные гуманоиды не обладали ни речью, ни разумом, но при этом пожирали людей, как чипсы, а обычное оружие уровня XIX века оказалось бессильно. Остатки рода людского смогли выжить лишь за циклопическими стенами, которые тройным кольцом опоясали последние поля, города и деревни. Затишье продолжалось сто лет, за это время люди успокоились, армия была сокращена, а городская стража превратилась в дармоедов. Боеспособность сохранил лишь Разведкорпус – но кому нужны самоубийцы, что постоянно рискуют жизнью за стенами, когда можно спокойно сидеть за каменным забором?
Увы, все хорошее кончается. Ужасающий колосс сокрушил внешнюю стену «Мария», и гиганты уничтожили один из городов. Мать юного Эрена погибла, отец пропал, и парень, кипящий жаждой мести, вместе с приемной сестрой Микасой поступил в Корпус, чьи элитные бойцы могут побеждать гигантов один на один. Овладеть системой тросов, лебедок и газовых ускорителей нелегко, но лишь подобная техника помогает делать безумные прыжки и поражать монстров в затылок – единственное уязвимое место. Учиться надо быстро, ибо идет война, и действия врага становятся все агрессивнее – будто за безмозглыми горами плоти стоит чей-то чуждый разум. Или… не такой уж чуждый? Эрену и его друзьям среди боев и сражений предстоит открыть немало пугающих тайн!-Качество: BDRip | Формат: MKV
Тип видео: без хардсаба
Видео: AVC, 1280х720(16/9), ~4000 Kbps, 23.976fps, 10 bits
Аудио 1-7: AC-3, 2 ch, 192кбит/с, 48000Hz
Аудио 8: AAC, 2 ch, 192кбит/с, 48000Hz-

Скриншоты

Список озвучек в раздаче

Любительский Многоголосый от Kansai Studio
Любительский Многоголосый от Renegade Team
Любительский Многоголосый от Gezell Studio
Любительский Двухголосный от (AniDub)
Любительский Двухголосный от (AniFilm)
Любительский Двухголосный от (Anilibria)
Любительский Двухголосный от (Animedia)

Список эпизодов

01. К тебе, 2000 лет спустя: Падение Ковчега (1)
02. Тот день: Падение Ковчега (2)
03. Тусклый свет в пучине отчаяния: Человечество снова возрождается (1)
04. Ночь распределения: Человечество снова возрождается (2)
05. Первая битва: Битва за Трост (1)
06. Мир что она лицезрела: Битва за Трост (2)
07. Маленький Клинок: Битва за Трост (3)
08. Слыша сердцебиение: Битва за Трост (4)
09. Куда делась левая рука: Битва за Трост (5)
10. Ответ: Битва за Трост (6)
11. Идол: Битва за Трост (7)
12. Рана: Битва за Трост (8)
13. Примитивные желания: Битва за Трост (9)
14. Все еще не могу видеть: Ночь перед контрнаступлением (1)
15. Отряд специального назначения: Ночь перед контрнаступлением (2)
16. Что должно быть сделано: Ночь перед контрнаступлением (3)
17. Титан женского пола: 57-я вылазка за стену (1)
18. Лес гигантских деревьев: 57-я вылазка за стену (2)
19. Укус: 57-я вылазка за стену (3)
20. Эрвин Смит: 57-я вылазка за стену (4)
21. Сокрушительный удар: 57-я вылазка за стену (5)
22. Поверженные: 57-я вылазка за стену (6)
23. Улыбка: Рейд на район Стохесс (1)
24. Сожаление: Рейд на район Стохесс (2)
25. Стена: Рейд на район Стохесс (3)

MI

General
Unique ID : 218722626074458923382028801637973106410 (0xA48C720CC235C1519FC22ACEF46E1EEA)
Complete name : F:\[RAZNEW]\[RUS(ext)]\Attack on Titan\Part 1\01. To You, 2000 Years in the Future The Fall of Zhiganshina (К тебе, 2000 лет спустя Падение Ковчега).mkv
Format : Matroska
Format version : Version 4 / Version 2
File size : 791 MiB
Duration : 25mn 41s
Overall bit rate mode : Variable
Overall bit rate : 4 307 Kbps
Encoded date : UTC 2014-09-14 12:46:31
Writing application : mkvmerge v6.9.1 ('Blue Panther') 32bit built on Apr 18 2014 18:15:44
Writing library : libebml v1.3.0 + libmatroska v1.4.1
Attachements : Cover.png / 1.ttf / 2.ttf / 6_0.ttf / 12551.ttf / 12551_0.ttf / brushtype-normal.ttf / CrashC Regular.ttf / Graffiti2C Regular.ttf / seagull.ttf
Video
ID : 1
Format : AVC
Format/Info : Advanced Video Codec
Format profile : High [email protected]
Format settings, CABAC : Yes
Format settings, ReFrames : 16 frames
Codec ID : V_MPEG4/ISO/AVC
Duration : 25mn 41s
Bit rate mode : Variable
Maximum bit rate : 40.0 Mbps
Width : 1 280 pixels
Height : 720 pixels
Display aspect ratio : 16:9
Frame rate mode : Constant
Frame rate : 23.976 fps
Color space : YUV
Chroma subsampling : 4:2:0
Bit depth : 10 bits
Scan type : Progressive
Title : 01. To You, 2000 Years in the Future The Fall of Zhiganshina
Writing library : x264 core 138 r2358 9e941d1
Encoding settings : cabac=1 / ref=16 / deblock=1:2:-2 / analyse=0x3:0x133 / me=umh / subme=9 / psy=1 / psy_rd=1.00:0.00 / mixed_ref=1 / me_range=32 / chroma_me=1 / trellis=2 / 8x8dct=1 / cqm=0 / deadzone=21,11 / fast_pskip=0 / chroma_qp_offset=-2 / threads=6 / lookahead_threads=1 / sliced_threads=0 / nr=0 / decimate=0 / interlaced=0 / bluray_compat=0 / constrained_intra=0 / bframes=16 / b_pyramid=2 / b_adapt=2 / b_bias=0 / direct=3 / weightb=1 / open_gop=0 / weightp=2 / keyint=infinite / keyint_min=1 / scenecut=40 / intra_refresh=0 / rc_lookahead=100 / rc=crf / mbtree=1 / crf=20.0 / qcomp=0.60 / qpmin=16 / qpmax=36 / qpstep=7 / vbv_maxrate=40000 / vbv_bufsize=60000 / crf_max=0.0 / nal_hrd=vbr / ip_ratio=1.40 / aq=1:1.50
Language : Japanese
Default : Yes
Forced : No
Color primaries : BT.709
Transfer characteristics : BT.709
Matrix coefficients : BT.709
Color range : Limited
Audio #1
ID : 2
Format : AC-3
Format/Info : Audio Coding 3
Mode extension : CM (complete main)
Format settings, Endianness : Big
Codec ID : A_AC3
Duration : 25mn 41s
Bit rate mode : Constant
Bit rate : 192 Kbps
Channel(s) : 2 channels
Channel positions : Front: L R
Sampling rate : 48.0 KHz
Bit depth : 16 bits
Compression mode : Lossy
Stream size : 35.3 MiB (4%)
Title : MVO (KANSAI)
Language : Russian
Default : Yes
Forced : No
Audio #2
ID : 3
Format : AC-3
Format/Info : Audio Coding 3
Mode extension : CM (complete main)
Format settings, Endianness : Big
Codec ID : A_AC3
Duration : 25mn 41s
Bit rate mode : Constant
Bit rate : 192 Kbps
Channel(s) : 2 channels
Channel positions : Front: L R
Sampling rate : 48.0 KHz
Bit depth : 16 bits
Compression mode : Lossy
Stream size : 35.3 MiB (4%)
Title : MVO (Renegade team)
Language : Russian
Default : No
Forced : No
Audio #3
ID : 4
Format : AC-3
Format/Info : Audio Coding 3
Mode extension : CM (complete main)
Format settings, Endianness : Big
Codec ID : A_AC3
Duration : 25mn 41s
Bit rate mode : Constant
Bit rate : 192 Kbps
Channel(s) : 2 channels
Channel positions : Front: L R
Sampling rate : 48.0 KHz
Bit depth : 16 bits
Compression mode : Lossy
Stream size : 35.3 MiB (4%)
Title : MVO (Gezell Studio)
Language : Russian
Default : No
Forced : No
Audio #4
ID : 5
Format : AC-3
Format/Info : Audio Coding 3
Mode extension : CM (complete main)
Format settings, Endianness : Big
Codec ID : A_AC3
Duration : 25mn 41s
Bit rate mode : Constant
Bit rate : 192 Kbps
Channel(s) : 2 channels
Channel positions : Front: L R
Sampling rate : 48.0 KHz
Bit depth : 16 bits
Compression mode : Lossy
Stream size : 35.3 MiB (4%)
Title : DVO (AniDuB)
Language : Russian
Default : No
Forced : No
Audio #5
ID : 6
Format : AC-3
Format/Info : Audio Coding 3
Mode extension : CM (complete main)
Format settings, Endianness : Big
Codec ID : A_AC3
Duration : 25mn 41s
Bit rate mode : Constant
Bit rate : 192 Kbps
Channel(s) : 2 channels
Channel positions : Front: L R
Sampling rate : 48.0 KHz
Bit depth : 16 bits
Compression mode : Lossy
Stream size : 35.3 MiB (4%)
Title : DVO (Anifilm)
Language : Russian
Default : No
Forced : No
Audio #6
ID : 7
Format : AC-3
Format/Info : Audio Coding 3
Mode extension : CM (complete main)
Format settings, Endianness : Big
Codec ID : A_AC3
Duration : 25mn 41s
Bit rate mode : Constant
Bit rate : 192 Kbps
Channel(s) : 2 channels
Channel positions : Front: L R
Sampling rate : 48.0 KHz
Bit depth : 16 bits
Compression mode : Lossy
Stream size : 35.3 MiB (4%)
Title : DVO (Anilibria)
Language : Russian
Default : No
Forced : No
Audio #7
ID : 8
Format : AC-3
Format/Info : Audio Coding 3
Mode extension : CM (complete main)
Format settings, Endianness : Big
Codec ID : A_AC3
Duration : 25mn 41s
Bit rate mode : Constant
Bit rate : 192 Kbps
Channel(s) : 2 channels
Channel positions : Front: L R
Sampling rate : 48.0 KHz
Bit depth : 16 bits
Compression mode : Lossy
Stream size : 35.3 MiB (4%)
Title : DVO (Animedia)
Language : Russian
Default : No
Forced : No
Audio #8
ID : 9
Format : AAC
Format/Info : Advanced Audio Codec
Format profile : LC
Codec ID : A_AAC
Duration : 25mn 41s
Channel(s) : 2 channels
Channel positions : Front: L R
Sampling rate : 48.0 KHz
Compression mode : Lossy
Title : Original
Language : Japanese
Default : No
Forced : No
Text #1
ID : 10
Format : ASS
Codec ID : S_TEXT/ASS
Codec ID/Info : Advanced Sub Station Alpha
Compression mode : Lossless
Title : Надписи
Language : Russian
Default : Yes
Forced : No
Text #2
ID : 11
Format : ASS
Codec ID : S_TEXT/ASS
Codec ID/Info : Advanced Sub Station Alpha
Compression mode : Lossless
Title : Полные [indy]
Language : Russian
Default : No
Forced : No
Menu
00:00:00.000 : en:Opening Credits
00:00:33.233 : en:Part A
00:09:31.070 : en:Part B
00:16:39.932 : en:Part C
00:21:44.436 : en:Ending Credits

Создавать темы 03-Май-2015 20:54

[Профиль]  [ЛС] 
Показать сообщения:    
Ответить на тему

Текущее время: 21-Окт 17:25

Часовой пояс: UTC + 5



Вы не можете начинать темы
Вы не можете отвечать на сообщения
Вы не можете редактировать свои сообщения
Вы не можете удалять свои сообщения
Вы не можете голосовать в опросах
Вы не можете прикреплять файлы к сообщениям
Вы не можете скачивать файлы