Мастер Муши (ТВ-2) / Mushishi Zoku Shou (Нагахама Хироси) [TV+Special] [10+1 из 10+1] [Без Хардсаба] [RUS(ext), JAP+SUB] [2014 г., Приключения, Мистика, Фентези, Повседневность, Сверхъестественное, Сэйнэн, BDRip] [720p]

Ответить на тему
 

Alex_38 ®

Стаж: 5 лет 8 месяцев

Сообщений: 336

Симпатии: 37

- Страна: Япония
Дата выпуска: c 05.04.2014 по 20.08.2014
Жанр: Приключения, Мистика, Фентези, Повседневность, Сверхъестественное, Сэйнэн
Категория: TV+Special
Количество эпизодов: 10+1 из 10+1
Продолжительность: 25 минут (47 минут спешл)-Перевод:
  • Русские субтитры от SHIFT (полные/вспомогательные) [TV]
    Перевод: Evafan, Редактура, Оформление & Лирика: Dimak

  • Русские субтитры от Nesitach & Stan WarHammer (полные/вспомогательные) [SP]
  • Русская звуковая дорожка двухголосая (муж./жен.) от Cuba77 & Oriko (AniDub)
-Режиссёр: Нагахама Хироси
Автор оригинала: Урусибара Юки
Студия: Artland-Описание:
На далеком Западе век пара и электричества, а в закрытой от иностранцев Японии все еще царит загадочный Восток, где люди верят, что все мы живем в плену иллюзии, а жить-то все равно надо. Любой японец знает, что за тонкой пеленой таятся иные миры и сущности, но соприкасаться с ними простому человеку не стоит. И все же, как говорят герои сериала, иногда «тайное должно становиться явным», и на этот случай есть свои специалисты. Например, мастера муси!
Гинко, молодой парень с седыми волосами и неизменной папиросой, все так же ходит по стране, изучая «муси» - духов мировой энергии, крупицы жизни, что кишат вокруг, но незримы простому смертному. Муси прекрасны и опасны как сама природа – могут что-то дать, а могут и отнять. Богов не видел никто, а вот знатоков муси в Японии хватает. Ведь тот, кто познал пути духов, становится немного мудрее и ближе к гармонии, потому способен помочь себе и людям. Этим Гинко и занимается, а значит, нас ждет немало новых прекрасных и поучительных историй!
© Hollow, World Art-По сути, автор манги пересказывает старые японские легенды на новый лад. В манге и аниме, как и следовало ожидать от такого необычного замысла, используется старинная форма иероглифа mushi – «насекомые». Подзаголовок нового сезона zoku-shou дословно значит «следующая глава», то есть «продолжение».
Спешл является объединением 11 & 12 эпизодов, которое транслировалось 20 августа, 2014 и вышло на Blu-ray/DVD 3 vol. вместе с аниме 26 ноября, 2014.-Информационные ссылки: AniDB || World Art || MAL-Качество: BDRip
Энкод: Winter - RG Pantheon
Тип видео: без хардсаба, без линковки
Формат: mkv
Видео: x264 (Hi10p), 1280x720, ~3500 Kbps, 23.976 fps
Аудио JAP: Vorbis, 48000Hz, ~256 Kbps, 2ch
Аудио RUS: AC3, 48000Hz, ~192 Kbps, 2ch (внешними файлами)
-

Список эпизодов

01. Banquet at the Forest`s Edge
02. The Warbling Seashell
03. Beneath the Snow
04. The Hand That Caresses the Night
05. Mirror Lake
06. Floral Delusion
07. Cloudless Rain
08. Wind Raiser
09. Valley of the Welling Tides
10. Depths of Winter
SP. Path of Thorns

Отличия от других раздач

https://tas-ix.net/viewtopic.php?t=97011 - BDRip

Подробные тех. данные

General
Unique ID                   : 217493861302359609682720611437075946630 (0xA39FCB44E971103ABD203B5CFA06DC86)
Complete name               : ***\Mushishi Zoku Shou [BD] [720p]\[Winter] Mushishi Zoku Shou 01 [BDrip 1280x720 x264 Vorbis].mkv
Format                      : Matroska
Format version              : Version 2
File size                   : 656 MiB
Duration                    : 23mn 46s
Overall bit rate mode       : Variable
Overall bit rate            : 3 857 Kbps
Encoded date                : UTC 2014-07-27 13:21:59
Writing application         : mkvmerge v2.9.8 ('C'est le bon') built on Aug 13 2009 12:49:06
Writing library             : libebml v0.7.7 + libmatroska v0.8.1
Video
ID                          : 1
Format                      : AVC
Format/Info                 : Advanced Video Codec
Format profile              : High [email protected]
Format settings, CABAC      : Yes
Format settings, ReFrames   : 9 frames
Codec ID                    : V_MPEG4/ISO/AVC
Duration                    : 23mn 46s
Bit rate                    : 3 524 Kbps
Width                       : 1 280 pixels
Height                      : 720 pixels
Display aspect ratio        : 16:9
Frame rate mode             : Constant
Frame rate                  : 23.976 fps
Color space                 : YUV
Chroma subsampling          : 4:2:0
Bit depth                   : 10 bits
Scan type                   : Progressive
Bits/(Pixel*Frame)          : 0.159
Stream size                 : 599 MiB (91%)
Writing library             : x264 core 132 r2309 3b1f1f7
Encoding settings           : cabac=1 / ref=9 / deblock=1:-2:-2 / analyse=0x3:0x133 / me=umh / subme=9 / psy=1 / psy_rd=0.90:0.00 / mixed_ref=1 / me_range=24 / chroma_me=1 / trellis=2 / 8x8dct=1 / cqm=0 / deadzone=21,11 / fast_pskip=1 / chroma_qp_offset=-2 / threads=12 / lookahead_threads=2 / sliced_threads=0 / nr=0 / decimate=0 / interlaced=0 / bluray_compat=0 / constrained_intra=0 / bframes=8 / b_pyramid=2 / b_adapt=2 / b_bias=0 / direct=1 / weightb=1 / open_gop=0 / weightp=2 / keyint=250 / keyint_min=23 / scenecut=40 / intra_refresh=0 / rc=crf / mbtree=0 / crf=15.7 / qcomp=0.70 / qpmin=9 / qpmax=42 / qpstep=4 / ip_ratio=1.40 / pb_ratio=1.30 / aq=1:0.90
Default                     : No
Forced                      : No
Audio
ID                          : 2
Format                      : Vorbis
Format settings, Floor      : 1
Codec ID                    : A_VORBIS
Duration                    : 23mn 46s
Bit rate mode               : Variable
Bit rate                    : 256 Kbps
Channel(s)                  : 2 channels
Sampling rate               : 48.0 KHz
Compression mode            : Lossy
Stream size                 : 43.5 MiB (7%)
Writing library             : libVorbis (Schaufenugget) (20101101 (Schaufenugget))
Language                    : Japanese
Default                     : Yes
Forced                      : No

Скриншоты

Создавать темы 03-Май-2015 21:08

[Профиль]  [ЛС] 
Показать сообщения:    
Ответить на тему

Текущее время: 23-Ноя 12:36

Часовой пояс: UTC + 5



Вы не можете начинать темы
Вы не можете отвечать на сообщения
Вы не можете редактировать свои сообщения
Вы не можете удалять свои сообщения
Вы не можете голосовать в опросах
Вы не можете прикреплять файлы к сообщениям
Вы не можете скачивать файлы