От всего сердца / All of My Heart (Питер ДеЛуис) [2015, США, Канада, мелодрама, HDTVRip] (VO)

Ответить на тему
 

Davron1402 ®

Стаж: 3 года 10 месяцев

Сообщений: 136

Симпатии: 122

От всего сердца / All of My Heart
-Страна: США, Канада
Жанр: мелодрама
Год выпуска: 2015
Продолжительность: 01:23:16
Перевод: Одноголосый закадровый
Cубтитры: нет
Режиссер: Питер ДеЛуис
В ролях: Лейси Чаберт
Бреннан Эллиотт
Эдвард Эснер
Грейстон Холт
Дэниэл Кадмор
Хезер Дорксен
Барбара Поллард
Патрик Сабонгуй
Дрю Тэннер
Пол МакДжиллион

Описание: В один прекрасный день Дженни Финтли узнает, что ей в наследство достался дом. Точнее половина дома. Вторая же полагается финасисту-биржевику Брайану. Брайан предлагает продать дом, но Дженни, мечтающая стать поваром, хочет сделать из него гостиницу с завтраками. Она обещает Брайану выкупить его половину, когда дела пойдут в гору. Он принимает ее предложение и уезжает в Нью-Йорк, рассчитывая больше не возвращаться в сельский рай Дженни. Однако судьба решает иначе, и вскоре Дженни и Брайану приходится жить вместе, пытаясь помочь друг другу решить проблемы и обрести счастье…-Доп. информация:
Сценарий: Карен Берковичи
Продюсер: Питер ДеЛуис, Харви Кан
Оператор: Адам Сливиньский
Композитор: Кристофер Никел
Художник: Тинк
Монтаж: Ричард Швэдел-Качество видео: HDTVRip
Формат видео:mp4 (MPEG-4)
Видео: AVC, 852 x 480 (16:9), 23.976 fps, 774 Kbps
Аудио: AAC, 44.1 KHz, 2 channels, 151 Kbps- 

MediaInfo

Расположение: D:\KINO\All.of.My.Heart.2015.mp4
Имя файла: All.of.My.Heart.2015.mp4
Формат файла: .mp4 (MPEG-4)
Размер файла: 553.51 MB
Длительность: 1h 23mn
Навигация по главам: Нет
Bitrate (все потоки): 929 Kbps
Тип битрейта (все потоки): Variable
Файл создан...: UTC 2015-05-03 15:03:08
...при помощи: Lavf51.12.1
Название: All.of.My.Heart.2015
Тип потока: Видео
Длительность: 01:23:16
Кодек: AVC
Кодек/Профиль: [email protected]
Кодек/ID: avc1
Кодек/CABAC: No
Кодек/ReFrames: 1 frame
Размеры изображения: 852 x 480 (16:9)
Частота кадров: 23.976 fps
Размер потока: 461 MiB (83%)
Битрейт: 774 Kbps
Цветовое пространство: YUV
Тип развёртки: Progressive
Глубина: 8 bits
Тип потока: Звук #1
Длительность: 01:23:16.006
Кодек: AAC
Кодек/Профиль: LC
Кодек/ID: 40
Частота дискретизации: 44.1 KHz
Каналов: 2 channels
Битрейт: 151 Kbps
Битрейт/тип: Variable
Размер потока: 89.9 MiB (16%)
Метод сжатия: Lossy

Скриншоты




Создавать темы 03-Май-2015 21:28

[Профиль]  [ЛС] 

Evropa_uzb

Стаж: 5 лет 5 месяцев

Сообщений: 98

Симпатии: 5

хороший фильм спасибо +5

Создавать темы 04-Май-2015 10:15

[Профиль]  [ЛС] 

Davron1402 ®

Стаж: 3 года 10 месяцев

Сообщений: 136

Симпатии: 122

Лейси Чаберт красавица

Создавать темы 05-Май-2015 21:08

[Профиль]  [ЛС] 
Показать сообщения:    
Ответить на тему

Текущее время: 23-Ноя 23:31

Часовой пояс: UTC + 5



Вы не можете начинать темы
Вы не можете отвечать на сообщения
Вы не можете редактировать свои сообщения
Вы не можете удалять свои сообщения
Вы не можете голосовать в опросах
Вы не можете прикреплять файлы к сообщениям
Вы не можете скачивать файлы