Небесный Фафнир / Fafner of the Blue Sky: Dead Aggressor (Хабара Нобуёси) [TV] [Без хардсаба] [01-26 из 26] [RUS(int), JAP+SUB] [2004г., приключения, фантастика, меха, драма DVDRip]

Ответить на тему
 

SoluSoull ®

Стаж: 2 года 7 месяцев

Сообщений: 379

Симпатии: 452

Fafner of the Blue Sky: Dead Aggressor
Небесный Фафнир-Производство: Япония
Год выпуска: 2004
Жанр: приключения, фантастика, меха, драма
Тип: ТВ (26 эп.), 25 мин.-Перевод:
Озвучка от Харука
Субтитры от Fiben-Режиссёр: Хабара Нобуёси
Автор оригинала: Яманобэ Кадзуки
Студия: XEBEC-Описание: На землю напали инопланетяне и угрожают последним остаткам людей (Японию уничтожили полностью, но нет это не зеленые человечки, а что то непонятное. Более похожи инопланетяне на живые машины (отсутствие чувств). Будучи на земле, некоторые из них пытаются понять природу человека, его чувства, эмоции, другие же наоборот хотят полной ассимиляции остатков людей. Противостоит им все оставшееся человечество (не очень эффективно). И есть так называемые плавучие острова - последняя надежда человечества, где Японские ученые пытаются спасти мир и найти оружие против инопланетян (фестумов). Для борьбы с фестумами, пилоты мехов (фафнеров) должны ввести в свой организм элементы фестумов, которые медленно их убивают...-Серия состоит из
#1 Небесный Фафнир - ТВ (26 эп.), начало цикла, 2004 (Эта раздача)
#2 Небесный Фафнир (спэшл) - ТВ-спэшл (1 эп.), предыстория, 2005
#3 Небесный Фафнир (фильм) - п/ф, продолжение, 2010
#4 Небесный Фафнир: Исход - ТВ (13 эп.), продолжение, 2015-Качество: DVDRip \ Формат: MKV
Тип видео: без хардсаба
Видео: H.264, 704x480 (4:3), 1700 kbps, 23.976 fps
Аудио RUS: AC3 2 Ch, 48000Hz, 448 kbps
Аудио JAP: AC3 2 Ch, 48000Hz, 448 kbps-

Скриншоты

MI

General
Unique ID : 210127283436070810104209042507846742707 (0x9E150AF05E40B7F3BF2ECFDBF40972B3)
Complete name : E:\HDRips\Fafner\сезон 1\Fafner of the Blue Sky. Dead Aggressor 01 RUS.mkv
Format : Matroska
Format version : Version 2
File size : 547 MiB
Duration : 23mn 49s
Overall bit rate : 3 208 Kbps
Encoded date : UTC 2009-09-20 14:21:24
Writing application : mkvmerge v2.9.8 ('C'est le bon') built on Aug 13 2009 12:49:06
Writing library : libebml v0.7.7 + libmatroska v0.8.1
Video
ID : 1
Format : AVC
Format/Info : Advanced Video Codec
Format profile : [email protected]
Format settings, CABAC : Yes
Format settings, ReFrames : 3 frames
Format settings, GOP : N=1
Codec ID : V_MPEG4/ISO/AVC
Bit rate : 2 248 Kbps
Width : 704 pixels
Height : 480 pixels
Display aspect ratio : 4:3
Frame rate mode : Variable
Original frame rate : 29.970 fps
Standard : NTSC
Color space : YUV
Chroma subsampling : 4:2:0
Bit depth : 8 bits
Scan type : Progressive
Writing library : x264 core 59
Encoding settings : cabac=1 / ref=3 / deblock=1:0:0 / analyse=0x3:0x113 / me=hex / subme=7 / brdo=0 / mixed_ref=1 / me_range=16 / chroma_me=1 / trellis=0 / 8x8dct=1 / cqm=1 / deadzone=21,11 / chroma_qp_offset=0 / threads=2 / nr=0 / decimate=1 / mbaff=0 / bframes=2 / b_pyramid=0 / b_adapt=1 / b_bias=0 / direct=3 / wpredb=0 / bime=0 / keyint=250 / keyint_min=25 / scenecut=40(pre) / rc=crf / crf=13.0 / rceq='blurCplx^(1-qComp)' / qcomp=1.00 / qpmin=10 / qpmax=51 / qpstep=4 / ip_ratio=1.40 / pb_ratio=1.30 / aq=2:1.00
Language : Japanese
Default : Yes
Forced : No
Audio #1
ID : 2
Format : AC-3
Format/Info : Audio Coding 3
Mode extension : CM (complete main)
Format settings, Endianness : Big
Codec ID : A_AC3
Duration : 23mn 49s
Bit rate mode : Constant
Bit rate : 448 Kbps
Channel(s) : 2 channels
Channel positions : Front: L R
Sampling rate : 48.0 KHz
Bit depth : 16 bits
Compression mode : Lossy
Delay relative to video : 24ms
Stream size : 76.3 MiB (14%)
Title : Russian
Language : Russian
Default : Yes
Forced : No
Audio #2
ID : 3
Format : AC-3
Format/Info : Audio Coding 3
Mode extension : CM (complete main)
Format settings, Endianness : Big
Codec ID : A_AC3
Duration : 23mn 49s
Bit rate mode : Constant
Bit rate : 448 Kbps
Channel(s) : 2 channels
Channel positions : Front: L R
Sampling rate : 48.0 KHz
Bit depth : 16 bits
Compression mode : Lossy
Stream size : 76.3 MiB (14%)
Title : Japanese
Language : Japanese
Default : No
Forced : No
Text
ID : 4
Format : UTF-8
Codec ID : S_TEXT/UTF8
Codec ID/Info : UTF-8 Plain Text
Title : Russian
Language : Russian
Default : Yes
Forced : No

Создавать темы 03-Май-2015 22:08

[Профиль]  [ЛС] 
Показать сообщения:    
Ответить на тему

Текущее время: 22-Окт 18:53

Часовой пояс: UTC + 5



Вы не можете начинать темы
Вы не можете отвечать на сообщения
Вы не можете редактировать свои сообщения
Вы не можете удалять свои сообщения
Вы не можете голосовать в опросах
Вы не можете прикреплять файлы к сообщениям
Вы не можете скачивать файлы