Красавица Мемфиса / Memphis Belle (Майкл Кэйтон-Джонс) [1990, Великобритания, Япония, США, военный, драма, WEB-DL 720p] Dub (Варус) + AVO (Живов) + Original + Sub (Rus Eng)

Ответить на тему
 

lotto ®

Стаж: 7 лет 7 месяцев

Сообщений: 221

Симпатии: 409

Красавица Мемфиса / Memphis Belle
«Brave young men who rode on the wings of victory»
-- Страна: Великобритания, Япония, США
Жанр: военный, драма
Год выпуска: 1990
Продолжительность: 01:47:10
Перевод: Профессиональный (дублированный) Варус-видео
Cубтитры: русские
Оригинальная аудиодорожка: английский--Режиссер: Майкл Кэйтон-Джонс
В ролях: Мэттью Модайн, Эрик Столц, Тейт Донован, Д.Б. Суини, Билли Зейн, Шон Эстин, Гарри Конник мл., Рид Даймонд, Кортни Гейнс, Нил Джунтоли--Описание: В основу картины положен реальный эпизод из истории Второй мировой войны, который был впервые документально изложен легендарным Уильямом Уайлером.
Герои фильма - экипаж бомбардировщика Б-17 "Красавица Мемфиса" - уже провели с риском для жизни двадцать четыре воздушные операции. Осталась последняя и самая опасная - двадцать пятая...-- --Качество видео: WEB-DL
Формат видео: MKV
Видео: H.264, 1270x720, 4000kbps, 23.976 fps
Аудио: AC3, 48.0 KHz, 2 ch, 192 Kbps (русский, дублированный)
Аудио 2: AC3, 48.0 KHz, 2 ch, 192 Kbps (русский, одноголосый) Живов
Аудио 3: AC3, 48.0 KHz, 6 ch, 448 Kbps (английский)
Аудио 4: AAC, 48.0 KHz, 2 ch, 160 Kbps (английский)
Формат субтитров: softsub (SRT)

MediaInfo

General
Unique ID : 214891696809183244985135892387032848580 (0xA1AAA2A7828BB3018E8AC9A27009D8C4)
Complete name : \Memphis.Belle.1990.WEB-DL.720p.mkv
Format : Matroska
Format version : Version 4 / Version 2
File size : 3.69 GiB
Duration : 1h 47mn
Overall bit rate : 4 925 Kbps
Movie name : Memphis.Belle.1990
Encoded date : UTC 2013-10-07 10:08:04
Writing application : mkvmerge v6.2.0 ('Promised Land') built on Apr 28 2013 12:22:01
Writing library : libebml v1.3.0 + libmatroska v1.4.0
Video
ID : 1
Format : AVC
Format/Info : Advanced Video Codec
Format profile : [email protected]
Format settings, CABAC : No
Format settings, ReFrames : 2 frames
Format settings, GOP : N=1
Codec ID : V_MPEG4/ISO/AVC
Duration : 1h 47mn
Width : 1 270 pixels
Height : 720 pixels
Display aspect ratio : 16:9
Frame rate mode : Constant
Frame rate : 23.976 fps
Color space : YUV
Chroma subsampling : 4:2:0
Bit depth : 8 bits
Scan type : Progressive
Title : Memphis.Belle.1990.WEB-DL.720p
Language : English
Default : Yes
Forced : No
Color range : Limited
Color primaries : BT.709
Transfer characteristics : BT.709
Matrix coefficients : BT.709
Audio #1
ID : 2
Format : AC-3
Format/Info : Audio Coding 3
Mode extension : CM (complete main)
Format settings, Endianness : Big
Codec ID : A_AC3
Duration : 1h 47mn
Bit rate mode : Constant
Bit rate : 192 Kbps
Channel(s) : 2 channels
Channel positions : Front: L R
Sampling rate : 48.0 KHz
Compression mode : Lossy
Stream size : 147 MiB (4%)
Title : Dub
Language : Russian
Default : Yes
Forced : No
Audio #2
ID : 3
Format : AC-3
Format/Info : Audio Coding 3
Mode extension : CM (complete main)
Format settings, Endianness : Big
Codec ID : A_AC3
Duration : 1h 47mn
Bit rate mode : Constant
Bit rate : 192 Kbps
Channel(s) : 2 channels
Channel positions : Front: L R
Sampling rate : 48.0 KHz
Compression mode : Lossy
Stream size : 147 MiB (4%)
Title : AVO (Jivov)
Language : Russian
Default : No
Forced : No
Audio #3
ID : 4
Format : AC-3
Format/Info : Audio Coding 3
Mode extension : CM (complete main)
Format settings, Endianness : Big
Codec ID : A_AC3
Duration : 1h 47mn
Bit rate mode : Constant
Bit rate : 384 Kbps
Channel(s) : 6 channels
Channel positions : Front: L C R, Side: L R, LFE
Sampling rate : 48.0 KHz
Compression mode : Lossy
Stream size : 294 MiB (8%)
Title : Original [AC3; 6 Ch; 48.0 KHz; 384 Kbps]
Language : English
Default : No
Forced : No
Audio #4
ID : 5
Format : AAC
Format/Info : Advanced Audio Codec
Format profile : LC
Codec ID : A_AAC
Duration : 1h 47mn
Channel(s) : 2 channels
Channel positions : Front: L R
Sampling rate : 48.0 KHz
Compression mode : Lossy
Title : Original [AAC 2.0 160 Kbps]
Language : English
Default : No
Forced : No
Text #1
ID : 6
Format : UTF-8
Codec ID : S_TEXT/UTF8
Codec ID/Info : UTF-8 Plain Text
Language : Russian
Default : No
Forced : No
Text #2
ID : 7
Format : UTF-8
Codec ID : S_TEXT/UTF8
Codec ID/Info : UTF-8 Plain Text
Language : English
Default : No
Forced : No
Menu
00:00:00.000 : en:Chapter 1.
00:10:00.000 : en:Chapter 2.
00:20:00.000 : en:Chapter 3.
00:30:00.000 : en:Chapter 4.
00:40:00.000 : en:Chapter 5.
00:50:00.000 : en:Chapter 6.
01:00:00.000 : en:Chapter 7.
01:10:00.000 : en:Chapter 8.
01:20:00.000 : en:Chapter 9.
01:30:00.000 : en:Chapter 10.
01:40:00.000 : en:Chapter 11.

Скриншот c названием фильма

Скриншоты

Создавать темы 05-Май-2015 12:29

[Профиль]  [ЛС] 
Показать сообщения:    
Ответить на тему

Текущее время: 22-Авг 12:30

Часовой пояс: UTC + 5



Вы не можете начинать темы
Вы не можете отвечать на сообщения
Вы не можете редактировать свои сообщения
Вы не можете удалять свои сообщения
Вы не можете голосовать в опросах
Вы не можете прикреплять файлы к сообщениям
Вы не можете скачивать файлы