Мама дарагая! (Ярослав Чеважевский) [2014, комедия, WEB-DLRip][Лицензия]

Ответить на тему
 

Walentin ®

Стаж: 4 года

Сообщений: 48

Симпатии: 29

Мама дарагая!
Жанр: комедия
Год выпуска: 2014
Продолжительность: 01:25:43
Выпущено: Россия
Озвучивание: Оригинальное [Лицензия]
Режиссёр: Ярослав Чеважевский
В ролях: Дмитрий Аверин, Нина Лощинина, Ксения Раппопорт, Марина Голуб, Игорь Яцко, Юрий Колокольников, Артур Ваха, Марина Рокина, Альберт Афонин, Юрий Симонов
Описание: Когда тебе двадцать два и ты живешь только по маминым правилам, самое время сказать: «С меня хватит!». Но Славику такое и в голову не придет, пока он не встретит девушку Женю. Теперь ему предстоит решать, чья любовь победит - ведь за попытку сорваться с крючка мама объявит войну.
Качество видео: WEB-DLRip
Формат видео: AVI
Видео: Видео: 2040 kb/s, 720x400, 25.000 fps
Аудио: Аудио: AC3, 384 kb/s (6 ch)

MediaInfo

Format : AVI
Format/Info : Audio Video Interleave
File size : 1.46 GiB
Duration : 1h 25mn
Overall bit rate : 2 434 Kbps
Movie name : Mama.Daragay.2014.O.WEB-DLRip.ELEKTRI4KA.uniongang.tv
Writing application : VirtualDubMod 1.5.10.3 | www.virtualdub-fr.org || (build 2550/release)
Copyright : UNIONGANG&RUSTORRENTS
Video
ID : 0
Format : MPEG-4 Visual
Format profile : Advanced [email protected]
Format settings, BVOP : 2
Format settings, QPel : No
Format settings, GMC : No warppoints
Format settings, Matrix : Default (MPEG)
Muxing mode : Packed bitstream
Codec ID : XVID
Codec ID/Hint : XviD
Duration : 1h 25mn
Bit rate : 2 040 Kbps
Width : 720 pixels
Height : 400 pixels
Display aspect ratio : 16:9
Frame rate : 25.000 fps
Color space : YUV
Chroma subsampling : 4:2:0
Bit depth : 8 bits
Scan type : Progressive
Compression mode : Lossy
Bits/(Pixel*Frame) : 0.283
Stream size : 1.22 GiB (84%)
Writing library : XviD 73
Audio
ID : 1
Format : AC-3
Format/Info : Audio Coding 3
Mode extension : CM (complete main)
Format settings, Endianness : Big
Codec ID : 2000
Duration : 1h 25mn
Bit rate mode : Constant
Bit rate : 384 Kbps
Channel(s) : 6 channels
Channel positions : Front: L C R, Side: L R, LFE
Sampling rate : 48.0 KHz
Bit depth : 16 bits
Compression mode : Lossy
Stream size : 235 MiB (16%)
Alignment : Split accross interleaves
Interleave, duration : 40 ms (1.00 video frame)
Interleave, preload duration : 500 ms

Скриншот c названием фильма

http://img.tas-ix.net/image/0Gr][img]

Скриншоты





Последний раз редактировалось: Walentin (2015-05-05 15:09), всего редактировалось 1 раз

Создавать темы 05-Май-2015 14:30

[Профиль]  [ЛС] 
Показать сообщения:    
Ответить на тему

Текущее время: 14-Дек 13:12

Часовой пояс: UTC + 5



Вы не можете начинать темы
Вы не можете отвечать на сообщения
Вы не можете редактировать свои сообщения
Вы не можете удалять свои сообщения
Вы не можете голосовать в опросах
Вы не можете прикреплять файлы к сообщениям
Вы не можете скачивать файлы