Виннету – сын Инчу-Чуна / Vinnetu.syn.Inchu.Chuna.1963.LowHDRip-AVC.H.264.745Mb.RG.Films (Харальд Рейнл) [1963, Германия,Италия,Югославия, Вестерн, HDRip] (Dub : Constantin Film)

Ответить на тему
 

EPMAK ®

Стаж: 2 года 8 месяцев

Сообщений: 255

Симпатии: 179

Виннету – сын Инчу-Чуна / Vinnetu.syn.Inchu.Chuna.1963.LowHDRip-AVC.H.264.745Mb.RG.Films
Страна: Германия,Италия,Югославия
Жанр: Вестерн
Год выпуска: 1963
Продолжительность: 01:41:31
Перевод: Профессиональный (дублированный) Доп. инфо о переводе Constantin Film
Cубтитры: нет
Режиссер: Харальд Рейнл
В ролях: Мария Верзини, Вальтер Барнес, Ральф Вольтер, Мэвид Попович, Крси Холанд, Марио Адорф, Лекс Баркер, Пьер Брис
Описание: Сентер – главарь банды головорезов, контролирует строительство дороги, которая должна пройти рядом с резервацией, в которой живут индейцы племени Апачи. Чтобы заработать на этом строительстве побольше денег, Сентер решает изменить план и немного «подвинуть» дорогу, так, чтобы она прошла по земле Апачи. Когда индейцы узнают о том, что на их земле белые люди начали строительство дороги, в ближайший город отправляется сын вождя индейцев, чтобы выяснить – кто и по какому праву разрешил это строительство. Но Виннету оказывается в плену у бандитов, которыми командует Сентер.
Качество видео: HDRip
Формат видео: MKV
Видео: AVC 897 Kbps 752 x 320
Аудио: MP3 128 Kbps 2 channels MS Stereo

MediaInfo

General
Unique ID : 182553558790905257802933411897951502153 (0x8956895A39CC294DA6357A377D6DBF49)
Complete name : D:\Vinnetu.i.zoloto.apachej.1963.LowHDRip-AVC.H.264.745Mb.RG.Films.mkv
Format : Matroska
File size : 746 MiB
Duration : 1h 41mn
Overall bit rate : 1 027 Kbps
Encoded date : UTC 2013-01-10 22:08:45
Writing application : mkvmerge v4.6.0 ('Still Crazy After All These Years') сборка от Apr 1 2011 21:01:49
Writing library : libebml v1.2.0 + libmatroska v1.1.0
Video
ID : 1
Format : AVC
Format/Info : Advanced Video Codec
Format profile : [email protected]
Format settings, CABAC : Yes
Format settings, ReFrames : 8 frames
Codec ID : V_MPEG4/ISO/AVC
Duration : 1h 41mn
Bit rate : 897 Kbps
Width : 752 pixels
Height : 320 pixels
Display aspect ratio : 2.35:1
Frame rate : 24.000 fps
Color space : YUV
Chroma subsampling : 4:2:0
Bit depth : 8 bits
Scan type : Progressive
Bits/(Pixel*Frame) : 0.155
Stream size : 638 MiB (86%)
Writing library : x264 core 115 r1937 aa21558
Encoding settings : cabac=1 / ref=8 / deblock=1:-1:-1 / analyse=0x3:0x133 / me=umh / subme=7 / psy=1 / psy_rd=1.00:0.10 / mixed_ref=1 / me_range=16 / chroma_me=1 / trellis=2 / 8x8dct=1 / cqm=0 / deadzone=21,11 / fast_pskip=0 / chroma_qp_offset=-3 / threads=6 / sliced_threads=0 / nr=0 / decimate=1 / interlaced=0 / bluray_compat=0 / constrained_intra=0 / bframes=3 / b_pyramid=2 / b_adapt=2 / b_bias=0 / direct=3 / weightb=1 / open_gop=0 / weightp=2 / keyint=250 / keyint_min=23 / scenecut=40 / intra_refresh=0 / rc_lookahead=50 / rc=2pass / mbtree=1 / bitrate=897 / ratetol=1.0 / qcomp=0.60 / qpmin=0 / qpmax=69 / qpstep=4 / cplxblur=20.0 / qblur=0.5 / ip_ratio=1.40 / aq=1:1.00
Audio
ID : 2
Format : MPEG Audio
Format version : Version 1
Format profile : Layer 3
Mode : Joint stereo
Mode extension : MS Stereo
Codec ID : A_MPEG/L3
Codec ID/Hint : MP3
Duration : 1h 41mn
Bit rate mode : Constant
Bit rate : 128 Kbps
Channel(s) : 2 channels
Sampling rate : 48.0 KHz
Compression mode : Lossy
Stream size : 92.9 MiB (12%)
Writing library : LAME3.98r
Encoding settings : -m j -V 4 -q 2 -lowpass 17 -b 128

Скриншот c названием фильма

Скриншоты

Создавать темы 05-Май-2015 18:30

[Профиль]  [ЛС] 
Показать сообщения:    
Ответить на тему

Текущее время: 17-Дек 05:21

Часовой пояс: UTC + 5



Вы не можете начинать темы
Вы не можете отвечать на сообщения
Вы не можете редактировать свои сообщения
Вы не можете удалять свои сообщения
Вы не можете голосовать в опросах
Вы не можете прикреплять файлы к сообщениям
Вы не можете скачивать файлы