Пациенты (Элла Омельченко) [2014, драма, комедия, WEB-DLRip] [Лицензия]

Ответить на тему
 

RecobaZico ®

Стаж: 2 года 5 месяцев

Сообщений: 22

Симпатии: 94

- Пациенты-Выпущено: Россия / Лук-фильм
Жанр: драма, комедия
Год выпуска: 2014
Продолжительность: 01:26:56
Озвучивание: Оригинальное [iTunes]-Режиссёр: Элла Омельченко-В ролях: Павел Баршак, Тимофей Трибунцев, Марьяна Кирсанова, Дмитрий Мухамадеев-Описание: Сергей посещает психоаналитика Брюсова, который на каждом сеансе внушает ему мысль о разводе со своей супругой. «Семья — это не главное! Главное — чего хочешь ты!» По мнению Брюсова жена подавляет в нем собственное «ЭГО». Леночка же, супруга Сергея, ходит на исповедь к священнику, отцу Сергию. Батюшка, в отличие от психоаналитика, наказывает Леночке, во что бы то ни стало сохранить семью. «Семья — это главное! Всё ради семьи!» Это противостояние психоаналитика и священника длится уже полтора года. Кто же победит?-Доп. информация:
 -Качество видео: WEB-DLRip
Формат видео: AVI-Видео: 1861 kb/s, 720x400
Аудио: AC3, 384 kb/s (6 ch)-

MediaInfo

Location: D:\Рекоба2015\Pacienty.2014.O.WEB-DLRip.UNIONGANG.ELEKTRI4KA.avi
Filename: Pacienty.2014.O.WEB-DLRip.UNIONGANG.ELEKTRI4KA.avi
File format: .avi (AVI)
File size: 1.37 GB
Duration: 1h 26mn
Navigate by chapters: Nope
Bitrate (all streams): 2 255 Kbps
...with: VirtualDubMod 1.5.10.3 | www.virtualdub-fr.org || (build 2550/release)
:
Title: Pacienty.2014.O.WEB-DLRip.ELEKTRI4KA.uniongang.tv
:
Stream type: Album
Copyrights: UNIONGANG&RUSTORRENTS
:
Stream type: Video
Duration: 01:26:56
Codec: MPEG-4 Visual
Codec Profile: Advanced [email protected]
Codec ID: XVID
Video Size: 720 x 400 (16:9)
Frame rate: 25.000 fps
Stream size: 1.13 GiB (83%)
Bitrate: 1 861 Kbps
Codec library: XviD 73
Colorspace: YUV
Scantype: Progressive
Bitdepth: 8 bits
:
Stream type: Audio #1
Duration: 01:26:56.280
Codec: AC-3
Codec ID: 2000
Samplerate: 48.0 KHz
Channels: 6 channels
Bitrate: 384 Kbps
Bitrate/Mode: Constant
Stream size: 239 MiB (17%)
Bitdepth: 16 bits
Compression mode: Lossy

Скриншот c названием фильма

Скриншоты






Последний раз редактировалось: RecobaZico (2015-05-07 13:17), всего редактировалось 4 раз(а)

Создавать темы 05-Май-2015 18:57

[Профиль]  [ЛС] 

Grock

Стаж: 6 лет 8 месяцев

Сообщений: 637

Симпатии: 113

RecobaZico, Добавьте пожалуйста еще один скриншот

Создавать темы 07-Май-2015 08:57

[Профиль]  [ЛС] 

RecobaZico ®

Стаж: 2 года 5 месяцев

Сообщений: 22

Симпатии: 94

Grock, добавил...

Создавать темы 07-Май-2015 13:13

[Профиль]  [ЛС] 
Показать сообщения:    
Ответить на тему

Текущее время: 20-Окт 23:10

Часовой пояс: UTC + 5



Вы не можете начинать темы
Вы не можете отвечать на сообщения
Вы не можете редактировать свои сообщения
Вы не можете удалять свои сообщения
Вы не можете голосовать в опросах
Вы не можете прикреплять файлы к сообщениям
Вы не можете скачивать файлы