Форс-Мажор / Turist (Рубен Эстлунд) [2014, Швеция, Франция, Норвегия, драма, HDRip] (MVO)

Ответить на тему
 

Davron1402 ®

Стаж: 3 года 7 месяцев

Сообщений: 136

Симпатии: 122

Форс-Мажор / Turist - Страна: Швеция, Франция, Норвегия
Жанр: драма
Год выпуска: 2014
Продолжительность: 01:59:41
Перевод: Профессиональный (многоголосый закадровый)
Cубтитры: нет
Режиссер: Рубен Эстлунд
В ролях: Йоханнес Кунке
Лиза Ловен Конгсли
Винсент Веттерген
Клара Веттерген
Кристофер Хивью
Фанни Метелиус
Карин Миренберг
Брэйди Корбет
Йоханнес Моустос
Хорхе Латтоф

Описание: Томас очень много работает. Но он наконец-то смог выделить пять дней, чтобы полностью посвятить их своей жене и детям. Они все вместе отправляются на отдых на горнолыжную базу отдыха. Это были идеальные выходные: счастливая семья все делала вместе. Однако человеческий характер проявляется в экстремальной ситуации. И она настала. Во время спокойной трапезы всем отдыхающим пришлось пережить настоящую панику: с горных склонов сошла большая снежная лавина. Это событие навсегда изменила привычный ход жизни наших героев...-Доп. информация:
Сценарий: Рубен Эстлунд
Продюсер: Филипп Бобер, Эрик Хеммендорф, Мари Челльсон
Оператор: Фредерик Вензел
Композитор: Ола Флёттум
Художник: Йозефин Асберг, Пиа Алеборг
Монтаж: Якоб Сечер Шульзингер-Качество видео: HDRip
Формат видео: mp4 (MPEG-4)
Видео: AVC, 720 x 304 (2.35:1), 24.000 fps, 766 Kbps
Аудио: AAC, 48.0 KHz, 2 channels, 128 Kbps- -Награды: Каннский кинофестиваль, 2014 год

MediaInfo

Расположение: D:\KINO\Kino\Форс-Мажор.mp4
Имя файла: Форс-Мажор.mp4
Формат файла: .mp4 (MPEG-4)
Размер файла: 769.71 MB
Длительность: 1h 59mn
Навигация по главам: Нет
Bitrate (все потоки): 899 Kbps
Тип битрейта (все потоки): Variable
Файл создан...: UTC 2015-05-04 15:31:18
Название: Форс-Мажор
Тип потока: Видео
Длительность: 01:59:41
Кодек: AVC
Кодек/Профиль: [email protected]
Кодек/ID: avc1
Кодек/CABAC: No
Кодек/ReFrames: 1 frame
Размеры изображения: 720 x 304 (2.35:1)
Частота кадров: 24.000 fps
Размер потока: 656 MiB (85%)
Битрейт: 766 Kbps
Битрейт/макс: 1 152 Kbps
Битрейт/тип: VBR
Цветовое пространство: YUV
Тип развёртки: Progressive
Глубина: 8 bits
Тип потока: Звук #1
Язык: English
Длительность: 01:59:41.376
Кодек: AAC
Кодек/Профиль: LC
Кодек/ID: 40
Частота дискретизации: 48.0 KHz
Каналов: 2 channels
Битрейт: 128 Kbps
Битрейт/тип: Constant
Размер потока: 110 MiB (14%)
Метод сжатия: Lossy

Скриншоты






Последний раз редактировалось: Davron1402 (2015-05-06 09:14), всего редактировалось 6 раз(а)

Создавать темы 06-Май-2015 07:48

[Профиль]  [ЛС] 

Каротажник

Стаж: 3 года 10 месяцев

Сообщений: 195

Симпатии: 211

Davron1402, допишите ниже указанное
Видео: разрешение кадра (в пикселях), значение видеобитрейта (kbps) и частота кадров в секунду (fps) (пример720х304 , 23.976 fps, 1773 Kbps )
Аудио: значение аудиобитрейта (kbps), количество аудиоканалов (ch) для каждой из дорожек. (пример48.0 KHz, AC-3, 384 Kbps (6 ch) )

Создавать темы 06-Май-2015 07:55

[Профиль]  [ЛС] 
Показать сообщения:    
Ответить на тему

Текущее время: 21-Авг 17:02

Часовой пояс: UTC + 5



Вы не можете начинать темы
Вы не можете отвечать на сообщения
Вы не можете редактировать свои сообщения
Вы не можете удалять свои сообщения
Вы не можете голосовать в опросах
Вы не можете прикреплять файлы к сообщениям
Вы не можете скачивать файлы