Мы смерти смотрели в лицо (Наум Бирман) [1980, драма, военный, DVDRip]

Ответить на тему
 

lotto ®

Стаж: 7 лет 10 месяцев

Сообщений: 221

Симпатии: 409

Мы смерти смотрели в лицо-- Жанр: драма, военный
Год выпуска: 1980
Продолжительность: 01:10:17--Режиссёр: Наум Бирман
В ролях: Олег Даль, Любовь Малиновская, Лариса Толкачёва, Юрий Жуков, Ольга Кузнецова, Юлия Слезкинская, Александр Довгалёв, Александр Зенкевич, Игорь Кустов, Юрий Федоров--Описание: В основе сюжета — подлинные факты. В марте 1942 бывший балетмейстер, а теперь — лейтенант Обрант (по фильму — Корбут) получил задание политотдела создать танцевальную группу. В блокадном Ленинграде он разыскал бывших своих учеников и привез на Ленинградский фронт, а через несколько дней юные танцоры дали свой первый концерт перед бойцами, вернувшимися с передовой…-- --Качество видео: DVDRip
Формат видео: AVI
Видео: XviD, 640x480, 1349 kbps, 25 fps
Аудио: MP3, 48 KHz, 2 ch, 128 kbps

MediaInfo

General
Complete name : \Мы смерти смотрели в лицо.avi
Format : AVI
Format/Info : Audio Video Interleave
File size : 746 MiB
Duration : 1h 10mn
Overall bit rate : 1 484 Kbps
Writing application : VirtualDubMod 1.5.4.1 (build 2178/release)
Writing library : VirtualDubMod build 2178/release
Video
ID : 0
Format : MPEG-4 Visual
Format profile : Advanced [email protected]
Format settings, BVOP : 1
Format settings, QPel : No
Format settings, GMC : No warppoints
Format settings, Matrix : Custom
Codec ID : XVID
Codec ID/Hint : XviD
Duration : 1h 10mn
Bit rate : 1 349 Kbps
Width : 640 pixels
Height : 480 pixels
Display aspect ratio : 4:3
Frame rate : 25.000 fps
Color space : YUV
Chroma subsampling : 4:2:0
Bit depth : 8 bits
Scan type : Progressive
Compression mode : Lossy
Bits/(Pixel*Frame) : 0.176
Stream size : 678 MiB (91%)
Writing library : XviD 1.2.1 (UTC 2008-12-04)
Audio
ID : 1
Format : MPEG Audio
Format version : Version 1
Format profile : Layer 3
Mode : Joint stereo
Mode extension : MS Stereo
Codec ID : 55
Codec ID/Hint : MP3
Duration : 1h 10mn
Bit rate mode : Constant
Bit rate : 128 Kbps
Channel(s) : 2 channels
Sampling rate : 48.0 KHz
Compression mode : Lossy
Stream size : 64.3 MiB (9%)
Alignment : Aligned on interleaves
Interleave, duration : 80 ms (2.00 video frames)
Interleave, preload duratio : 504 ms
Writing library : LAME3.98r
Encoding settings : -m j -V 4 -q 2 -lowpass 17 -b 128
Language : Russian

Скриншот c названием фильма

Скриншоты





Создавать темы 06-Май-2015 09:11

[Профиль]  [ЛС] 
Показать сообщения:    
Ответить на тему

Текущее время: 22-Ноя 23:34

Часовой пояс: UTC + 5



Вы не можете начинать темы
Вы не можете отвечать на сообщения
Вы не можете редактировать свои сообщения
Вы не можете удалять свои сообщения
Вы не можете голосовать в опросах
Вы не можете прикреплять файлы к сообщениям
Вы не можете скачивать файлы