Альпийская баллада (Борис Степанов) [1965, драма, мелодрама, TVRip]

Ответить на тему
 

lotto ®

Стаж: 7 лет 10 месяцев

Сообщений: 221

Симпатии: 409

Альпийская баллада-- Жанр: драма, мелодрама
Год выпуска: 1965
Продолжительность: 01:25:55--Режиссёр: Борис Степанов
В ролях: Любовь Румянцева, Станислав Любшин, Алексей Котрелёв, Ю. Юрченко, Галина Макарова, В. Былинский, Геннадий Василевский, Валентина Василенко , Александра Зимина, Вячеслав Кубарев, А. Нестеров, Борис Плосков, Владимир Белокуров, Антонина Бендова--Описание: Великая Отечественная война. Завод в Альпах, где работают военнопленные, подвергается ночным бомбардировкам. Воспользовавшись этим обстоятельством пятеро заключенных осуществляют побег. Среди них русский солдат. Только ему и удается уйти в горы. В горах Иван встречает итальянскую девушку Джулию, также бежавшую из плена.
Доп. информация: По одноименной повести Василя Быкова.-- --Качество видео: TVRip
Формат видео: AVI
Видео: XviD, 704x368, 2077 kbps, 25 fps,
Аудио: MP3, 48 kHz, 2 ch, 192.00 kbps

MediaInfo

General
Complete name : \Al`piyskaja_ballada.avi
Format : AVI
Format/Info : Audio Video Interleave
File size : 1.37 GiB
Duration : 1h 25mn
Overall bit rate : 2 278 Kbps
Writing application : VirtualDubModRus 1.5.10.2 (build 2542/release)
Writing library : VirtualDubMod build 2542/release
Video
ID : 0
Format : MPEG-4 Visual
Format profile : Advanced Simple@L5
Format settings, BVOP : 2
Format settings, QPel : No
Format settings, GMC : No warppoints
Format settings, Matrix : Default (MPEG)
Muxing mode : Packed bitstream
Codec ID : XVID
Codec ID/Hint : XviD
Duration : 1h 25mn
Bit rate : 2 077 Kbps
Width : 704 pixels
Height : 368 pixels
Display aspect ratio : 1.913
Frame rate : 25.000 fps
Color space : YUV
Chroma subsampling : 4:2:0
Bit depth : 8 bits
Scan type : Progressive
Compression mode : Lossy
Bits/(Pixel*Frame) : 0.321
Stream size : 1.25 GiB (91%)
Writing library : XviD 64
Audio
ID : 1
Format : MPEG Audio
Format version : Version 1
Format profile : Layer 3
Mode : Joint stereo
Mode extension : MS Stereo
Codec ID : 55
Codec ID/Hint : MP3
Duration : 1h 25mn
Bit rate mode : Constant
Bit rate : 192 Kbps
Channel(s) : 2 channels
Sampling rate : 48.0 KHz
Compression mode : Lossy
Stream size : 118 MiB (8%)
Alignment : Aligned on interleaves
Interleave, duration : 40 ms (1.00 video frame)
Interleave, preload duratio : 504 ms
Writing library : LAME3.97
Encoding settings : -m j -V 4 -q 0 -b 192

Скриншот c названием фильма

Скриншоты





Создавать темы 06-Май-2015 09:24

[Профиль]  [ЛС] 
Показать сообщения:    
Ответить на тему

Текущее время: 22-Ноя 02:25

Часовой пояс: UTC + 5



Вы не можете начинать темы
Вы не можете отвечать на сообщения
Вы не можете редактировать свои сообщения
Вы не можете удалять свои сообщения
Вы не можете голосовать в опросах
Вы не можете прикреплять файлы к сообщениям
Вы не можете скачивать файлы