Александр Маленький (Владимир Фокин) [1981, драма, военный, DVDRip]

Ответить на тему
 

lotto ®

Стаж: 7 лет 9 месяцев

Сообщений: 221

Симпатии: 409

Александр Маленький-- Страна: СССР, Германия (ГДР)
Жанр: драма, военный
Год выпуска: 1981
Продолжительность: 01:34:06--Режиссёр: Владимир Фокин
В ролях: Борис Токарев, Юрий Назаров, Михаил Кокшенов, Олаф Шнайдер, Уте Любош, Джерри Вольф, Вальфриде Шмитт, Николай Скоробогатов, Олаф Боддойч, Яна Ленц, Бритт Бауманн, Штефан Март, Андреас Гутовски, Герд Михаэль Хеннеберг, Харальд Вармбрунн, Станислав Молганов, Франк Шенк, Торстен Налеппа--Описание: В основе фильма - подлинный факт. Вторая мировая война окончена, первые мирные дни. В мае 1945 года на освобожденной территории Германии советские солдаты - капитан Игорь Цветов, старшина Василий Хрищанович и рядовой Курыкин - вместе с сотрудницей немецкой газеты Тессой Генцер помогают организовать работу детского дома. Немецкие дети настороженно глядят на солдат в незнакомой форме. Еще скрываются в лесах остатки разбитых нацистких дивизий. А в приют беженцы подбрасывают грудного ребенка. Солдаты называют малыша Александром Маленьким...-- --Качество видео: DVDRip
Формат видео: AVI
Видео: XviD, 688x512, 1775 kbps, 25 fps
Аудио: AC3, 48 kHz, 6 ch, 448.00 kbps

MediaInfo

General
Complete name : \Aleksandr Malenkiy.avi
Format : AVI
Format/Info : Audio Video Interleave
File size : 1.47 GiB
Duration : 1h 34mn
Overall bit rate : 2 233 Kbps
Writing application : VirtualDubMod 1.5.10.3 | www.virtualdub-fr.org || (build 2550/release)
Writing library : VirtualDubMod build 2550/release
Video
ID : 0
Format : MPEG-4 Visual
Format profile : Advanced [email protected]
Format settings, BVOP : 1
Format settings, QPel : No
Format settings, GMC : No warppoints
Format settings, Matrix : Custom
Codec ID : XVID
Codec ID/Hint : XviD
Duration : 1h 34mn
Bit rate : 1 775 Kbps
Width : 688 pixels
Height : 512 pixels
Display aspect ratio : 4:3
Frame rate : 25.000 fps
Color space : YUV
Chroma subsampling : 4:2:0
Bit depth : 8 bits
Scan type : Progressive
Compression mode : Lossy
Bits/(Pixel*Frame) : 0.202
Stream size : 1.17 GiB (79%)
Writing library : XviD 1.2.1 (UTC 2008-12-04)
Audio
ID : 1
Format : AC-3
Format/Info : Audio Coding 3
Mode extension : CM (complete main)
Format settings, Endianness : Big
Codec ID : 2000
Duration : 1h 34mn
Bit rate mode : Constant
Bit rate : 448 Kbps
Channel(s) : 6 channels
Channel positions : Front: L C R, Side: L R, LFE
Sampling rate : 48.0 KHz
Compression mode : Lossy
Stream size : 302 MiB (20%)
Alignment : Split accross interleaves
Interleave, duration : 40 ms (1.00 video frame)
Interleave, preload duratio : 500 ms

Скриншот c названием фильма

Скриншоты






Создавать темы 06-Май-2015 09:40

[Профиль]  [ЛС] 
Показать сообщения:    
Ответить на тему

Текущее время: 24-Окт 03:30

Часовой пояс: UTC + 5



Вы не можете начинать темы
Вы не можете отвечать на сообщения
Вы не можете редактировать свои сообщения
Вы не можете удалять свои сообщения
Вы не можете голосовать в опросах
Вы не можете прикреплять файлы к сообщениям
Вы не можете скачивать файлы