Бабье царство (Алексей Салтыков) [1967, драма, SATRip]

Ответить на тему
 

lotto ®

Стаж: 7 лет 11 месяцев

Сообщений: 221

Симпатии: 409

Бабье царство-- Жанр: драма
Год выпуска: 1967
Продолжительность: 01:30:58--Режиссёр: Алексей Салтыков
В ролях: Римма Маркова, Нина Сазонова, Светлана Жгун, Александра Дорохина, Валентина Столбова, Варвара Попова, Светлана Суховей, Анатолий Кузнецов, Пётр Чернов, Ефим Копелян, Александр Грузинский, Борис Кудрявцев, Фёдор Одиноков, Виталий Соломин, Александр Граве, Дмитрий Шутов, Галина Соколова, Валентина Березуцкая, Алексей Крыченков, Николай Юдин, Павел Тимченко, Леонид Видавский, Роберт Даглиш, Эрвин Кнаусмюллер, Ансис Крейцбергс, Леонид Светлов, Вильгельм Косач, Тамара Трушина, Ирина (Ирен) Азер, Зоя Рупасова, Владимир Ванышев--Описание: Фильм о деревне, ее искренних и открытых обитателях, о любви к человеку и земле. Это история простой колхозницы, возглавившей женщин села в годы Второй мировой войны и прошедшей с ними весь ужас фашистской оккупации, которая лишила ее сына, мужа и родного дома…-- --Качество видео: SATRip
Формат видео: AVI
Видео: XviD, 704x352, 1649 kbps, 25 fps
Аудио: MP2, 48 kHz, 2 ch, 192.00 kbps

MediaInfo

General
Complete name : \babje.tsarstvo.(SATrip.xvid).by.Animat.fenixclub.com.avi
Format : AVI
Format/Info : Audio Video Interleave
File size : 1.18 GiB
Duration : 1h 30mn
Overall bit rate : 1 850 Kbps
Writing application : VirtualDubMod 1.5.10.2 (build 2540/release)
Writing library : VirtualDubMod build 2540/release
Video
ID : 0
Format : MPEG-4 Visual
Format profile : Advanced [email protected]
Format settings, BVOP : 2
Format settings, QPel : No
Format settings, GMC : No warppoints
Format settings, Matrix : Default (H.263)
Muxing mode : Packed bitstream
Codec ID : XVID
Codec ID/Hint : XviD
Duration : 1h 30mn
Bit rate : 1 649 Kbps
Width : 704 pixels
Height : 352 pixels
Display aspect ratio : 2.000
Frame rate : 25.000 fps
Color space : YUV
Chroma subsampling : 4:2:0
Bit depth : 8 bits
Scan type : Progressive
Compression mode : Lossy
Bits/(Pixel*Frame) : 0.266
Stream size : 1.05 GiB (89%)
Writing library : XviD 1.1.2 (UTC 2006-11-01)
Audio
ID : 1
Format : MPEG Audio
Format version : Version 1
Format profile : Layer 2
Codec ID : 50
Duration : 1h 30mn
Bit rate mode : Constant
Bit rate : 192 Kbps
Channel(s) : 2 channels
Sampling rate : 48.0 KHz
Compression mode : Lossy
Delay relative to video : 16ms
Stream size : 125 MiB (10%)
Alignment : Split accross interleaves
Interleave, duration : 40 ms (1.00 video frame)
Interleave, preload duratio : 500 ms

Скриншот c названием фильма

Скриншоты






Создавать темы 06-Май-2015 09:53

[Профиль]  [ЛС] 
Показать сообщения:    
Ответить на тему

Текущее время: 18-Дек 19:54

Часовой пояс: UTC + 5



Вы не можете начинать темы
Вы не можете отвечать на сообщения
Вы не можете редактировать свои сообщения
Вы не можете удалять свои сообщения
Вы не можете голосовать в опросах
Вы не можете прикреплять файлы к сообщениям
Вы не можете скачивать файлы