Вечность / Forever / Сезон: 1 / Серии: 1-22 из 22 (Мэтью Миллер) [2014, фантастика, драма, WEB-DLRip] MVO (NewStudio) + Original

Ответить на тему
 

Zab ®

Стаж: 6 лет 4 месяца

Сообщений: 476

Симпатии: 424

Вечность
Forever

-Год выпуска: 2014
Страна: США
Жанр: фантастика, драма
Продолжительность: 00:43:00
Перевод: Профессиональный (многоголосый, закадровый) (NewStudio)-Режиссер: Брэд Андерсон
В ролях:
Йоан Гриффит (Dr. Henry Morgan), Лоррейн Туссен (Lt. Joanna Reece), Алана Де Ла Гарза (Detective Jo Martinez), Донни Кешаварц (Detective Hanson), Джоэль Мур (Lucas), Джадд Хёрш (Abe), Микаелла Эшли (1950's Featured Women), Alison Barton (Actress), Джудит Лайтфут Кларк (Mary Hulquist), Джессика ДиДжиованни (Real Estate Agent), Джулиан Гэмбл (Landlord), Чарли Хадсон III (Drug Dealer)-Описание: У доктора Генри Моргана, звездного судебно-медицинского эксперта Нью-Йорка, есть секрет. Он изучает мертвых не только, чтобы раскрывать уголовные дела. Он это делает, чтобы раскрыть тайну, которая ускользала от него на протяжении 200 лет - причину своего бессмертия...-Релиз:
Перевод: Юля Мейер-Качество: WEB-DLRip
Контейнер: AVI
Видео: 720x400 (1.80:1), 23.976 fps, XviD build 64 ~1500 kbps avg, 0.22 bit/pixel
Аудио №1: 48 kHz, MPEG Layer 3, 2 ch, ~128 kbps avg
Аудио №2: 48 kHz, MPEG Layer 3, 2 ch, ~128 kbps avg-

Скриншоты



MI

Общее
Полное имя : D:\Forever.2014.S01E01.WEB-DLRip.NewStudio.TV.avi
Формат : AVI
Формат/Информация : Audio Video Interleave
Размер файла : 550 Мбайт
Продолжительность : 43 м.
Общий поток : 1771 Кбит/сек
Программа кодирования : VirtualDubMod 1.5.10.2 (build 2540/release)
Библиотека кодирования : VirtualDubMod build 2540/release
Видео
Идентификатор : 0
Формат : MPEG-4 Visual
Профиль формата : Advanced [email protected]
Параметр BVOP формата : 2
Параметр QPel формата : Нет
Параметр GMC формата : Без точки перехода
Параметр матрицы формата : Default (MPEG)
Идентификатор кодека : XVID
Идентификатор кодека/Подсказка : XviD
Продолжительность : 43 м.
Битрейт : 1501 Кбит/сек
Ширина : 720 пикселей
Высота : 400 пикселей
Соотношение сторон : 16:9
Частота кадров : 23,976 кадра/сек
Цветовое пространство : YUV
Субдискретизация насыщенности : 4:2:0
Битовая глубина : 8 бит
Тип развёртки : Прогрессивная
Метод сжатия : С потерями
Бит/(Пиксели*Кадры) : 0.217
Размер потока : 466 Мбайт (85%)
Библиотека кодирования : XviD 64
Аудио #1
Идентификатор : 1
Формат : MPEG Audio
Версия формата : Version 1
Профиль формата : Layer 3
Режим : Joint stereo
Расширение режима : MS Stereo
Идентификатор кодека : 55
Идентификатор кодека/Подсказка : MP3
Продолжительность : 43 м.
Вид битрейта : Постоянный
Битрейт : 128 Кбит/сек
Каналы : 2 канала
Частота : 48,0 КГц
Метод сжатия : С потерями
Размер потока : 39,7 Мбайт (7%)
Выравнивание : Соединение по промежуткам
Продолжительность промежутка : 42 мс. (1,00 видеокадр)
Время предзагрузки промежутка : 504 мс.
Аудио #2
Идентификатор : 2
Формат : MPEG Audio
Версия формата : Version 1
Профиль формата : Layer 3
Режим : Joint stereo
Идентификатор кодека : 55
Идентификатор кодека/Подсказка : MP3
Продолжительность : 43 м.
Вид битрейта : Постоянный
Битрейт : 128 Кбит/сек
Каналы : 2 канала
Частота : 48,0 КГц
Метод сжатия : С потерями
Размер потока : 39,7 Мбайт (7%)
Выравнивание : Соединение по промежуткам
Продолжительность промежутка : 42 мс. (1,00 видеокадр)
Время предзагрузки промежутка : 504 мс.
Библиотека кодирования : LAME3.99r
Настройки программы : -m j -V 4 -q 2 -lowpass 17 -b 128


Последний раз редактировалось: Zab (2015-05-10 11:48), всего редактировалось 2 раз(а)

Создавать темы 07-Май-2015 05:45

[Профиль]  [ЛС] 

Топик был перенесен из форума Зарубежные сериалы в форум Сезон 2014-2015
xxxxx

Создавать темы 07-Май-2015 05:45

 

Zab ®

Стаж: 6 лет 4 месяца

Сообщений: 476

Симпатии: 424

Финал Сезона! pc

Создавать темы 07-Май-2015 05:46

[Профиль]  [ЛС] 

Zab ®

Стаж: 6 лет 4 месяца

Сообщений: 476

Симпатии: 424

Канал ABC закрыл дорогу в «Вечность»

Создавать темы 09-Май-2015 21:18

[Профиль]  [ЛС] 
Показать сообщения:    
Ответить на тему

Текущее время: 22-Авг 04:54

Часовой пояс: UTC + 5



Вы не можете начинать темы
Вы не можете отвечать на сообщения
Вы не можете редактировать свои сообщения
Вы не можете удалять свои сообщения
Вы не можете голосовать в опросах
Вы не можете прикреплять файлы к сообщениям
Вы не можете скачивать файлы