Дикая / Wild (Жан-Марк Валле / Jean-Marc Valle) [2014, США, Драма, биография, HDRip] [Лицензия + Original Eng]

Ответить на тему
 

RecobaZico ®

Стаж: 2 года 5 месяцев

Сообщений: 22

Симпатии: 94

- Дикая / Wild-Страна: США
Жанр: Драма, биография
Год выпуска: 2014
Продолжительность: 01:55:36-Перевод: Дублированный [Лицензия]
Cубтитры: нет
Оригинальная аудиодорожка: английский-Режиссер: Жан-Марк Валле / Jean-Marc Valle-В ролях: Риз Уизерспун, Лора Дерн, Томас Садоски, Кин МакРей, Михил Хаушман, У. Эрл Браун, Гэби Хоффманн, Кевин О. Ранкин, Брайан Ван Холт, Клифф Де Янг, Мо, Уилл Кадди, Ли Паркер, Ник Эверсман, Аллес Мист, Рэнди Шульман, Катрин Де Прюм, Курт Конройд, Тед ДеШатле, Джеффри Ньюман-Описание: В центре сюжета Шерил Стрэйд, раздавленная неудавшимся браком и смертью матери и потерявшая всякую надежду на счастье женщина, отправляется в пешее странствие по территории Pacific Crest Trail — маршруту по наиболее высоким участкам хребта Сьерра-Невада и Каскадных гор. Испытания, выпавшие в этом опасном одиночном путешествии на долю героини, неминуемо исцеляют ее от душевных страданий, но процесс этот будет отнюдь не безболезненным.-Pейтинги:
 -Качество видео: HDRip
Формат видео: AVI-Видео: 720x304 (2.37:1), 23.976 fps, XviD build 50 ~1639 kbps avg, 0.31 bit/pixel
Аудио #1: 48 kHz, AC3 Dolby Digital, 3/2 (L,C,R,l,r) + LFE ch, ~448 kbps (RUS дубляж)
Аудио #2: 48 kHz, AC3 Dolby Digital, 3/2 (L,C,R,l,r) + LFE ch, ~448 kbps (ENG оригинал)-

Знаете ли вы, что...

В одной сцене на календаре отображается: «Пятница, 7 декабря». Однако события фильма развиваются в 1995 году, и тогда 7 декабря был четверг.-Когда Шерил идет пешком под проливным дождем, она встречает маленького мальчика. После разговора с ним и его бабушкой она продолжает свой путь и вскоре падает на колени и начинает плакать. В этот момент, когда камера приближается к ее лицу, можно заметить, что ее волосы мгновенно становятся сухими.-Судя по заголовкам газет и смерти Джерри Гарсии можно понять, что действие фильма развивается в 1995 году, однако Шерил читает роман «Исчезнувшая» («Gone Girl»), который был опубликован лишь в 2012 году.

MediaInfo

Формат : AVI
Формат/Информация : Audio Video Interleave
Профиль формата : OpenDML
Размер файла : 2,05 Гбайт
Продолжительность : 1 ч. 55 м.
Общий поток : 2542 Кбит/сек
Программа кодирования : VirtualDubMod 1.5.10.2 (build 2540/release)
Библиотека кодирования : VirtualDubMod build 2540/release
Видео
Идентификатор : 0
Формат : MPEG-4 Visual
Профиль формата : Advanced Simple@L5
Параметр BVOP формата : 2
Параметр QPel формата : Нет
Параметр GMC формата : Без точки перехода
Параметр матрицы формата : Default (MPEG)
Идентификатор кодека : XVID
Идентификатор кодека/Подсказка : XviD
Продолжительность : 1 ч. 55 м.
Битрейт : 1628 Кбит/сек
Ширина : 720 пикселей
Высота : 304 пикселя
Соотношение сторон : 2,35:1
Частота кадров : 23,976 кадра/сек
Цветовое пространство : YUV
Субдискретизация насыщенности : 4:2:0
Битовая глубина : 8 бит
Тип развёртки : Прогрессивная
Метод сжатия : С потерями
Бит/(Пиксели*Кадры) : 0.310
Размер потока : 1,31 Гбайт (64%)
Библиотека кодирования : XviD 1.2.1 (UTC 2008-12-04)
Аудио #1
Идентификатор : 1
Формат : AC-3
Формат/Информация : Audio Coding 3
Расширение режима : CM (complete main)
Параметр Endianness формата : Big
Идентификатор кодека : 2000
Продолжительность : 1 ч. 55 м.
Вид битрейта : Постоянный
Битрейт : 448 Кбит/сек
Каналы : 6 каналов
Расположение каналов : Front: L C R, Side: L R, LFE
Частота : 48,0 КГц
Битовая глубина : 16 бит
Метод сжатия : С потерями
Размер потока : 370 Мбайт (18%)
Выравнивание : Разделение по промежуткам
Продолжительность промежутка : 42 мс. (1,00 видеокадр)
Время предзагрузки промежутка : 500 мс.
Аудио #2
Идентификатор : 2
Формат : AC-3
Формат/Информация : Audio Coding 3
Расширение режима : CM (complete main)
Параметр Endianness формата : Big
Идентификатор кодека : 2000
Продолжительность : 1 ч. 55 м.
Вид битрейта : Постоянный
Битрейт : 448 Кбит/сек
Каналы : 6 каналов
Расположение каналов : Front: L C R, Side: L R, LFE
Частота : 48,0 КГц
Битовая глубина : 16 бит
Метод сжатия : С потерями
Размер потока : 370 Мбайт (18%)
Выравнивание : Разделение по промежуткам
Продолжительность промежутка : 42 мс. (1,00 видеокадр)
Время предзагрузки промежутка : 500 мс.

Скриншот c названием фильма

Скриншоты




Создавать темы 07-Май-2015 13:57

[Профиль]  [ЛС] 

Davron1402

Стаж: 3 года 9 месяцев

Сообщений: 136

Симпатии: 122

http://img.tas-ix.net/ для скриншоты

Создавать темы 07-Май-2015 15:36

[Профиль]  [ЛС] 

Топик был перенесен из форума Фильмы за 2014 в форум Арт-хаус и авторское кино
kat222000

Создавать темы 05-Фев-2016 19:28

 
Показать сообщения:    
Ответить на тему

Текущее время: 23-Окт 09:10

Часовой пояс: UTC + 5



Вы не можете начинать темы
Вы не можете отвечать на сообщения
Вы не можете редактировать свои сообщения
Вы не можете удалять свои сообщения
Вы не можете голосовать в опросах
Вы не можете прикреплять файлы к сообщениям
Вы не можете скачивать файлы