Сумасшедшие <~~>/Crazy Bitches (Джейн Кларк) [2014, США / FilmMcQueen LLC, ужасы, HDRip] (DVO : [den904 & DeadSno], перевод [dsa69]) (Original Eng)

Ответить на тему
 

Suxrob89 ®

Стаж: 7 лет 3 месяца

Сообщений: 933

Симпатии: 564

-Сумасшедшие <~~>/Crazy Bitches- Страна: США / FilmMcQueen LLC
Жанр: ужасы
Год выпуска: 2014
Продолжительность: 01:40:31
Перевод: Любительский (двухголосый закадровый)[den904 & DeadSno], перевод [dsa69]
Cубтитры: нет
Оригинальная аудиодорожка: английский-Режиссер: Джейн Кларк-В ролях: Саманта Колберн, Кэти ДеБуоно, Энди Гала, Лиз МакГивер, Виктория Профета, Гвиневер Тёрнер, Найо Уоллес, Мэри Уэллс, Блейк Беррис, Кэндис Кейн-Описание: Группа подружек вместе отправляются на ранчо, дабы провести веселые деньки в сельском антураже. Однако беспечные девицы не знают-не ведают, что, согласно местным байкам, десять лет назад, на этом ранчо, жестокий маниак зверски расправился с 7мью девушками и скрылся в лесной глуши. И их веселые деньки исчезают, как утренний туман с восходом солнца, когда одна за одной, подружки начинают куда-то пропадать...Теперь на повестке дня стоят вопросы: что выпить и с кем заняться любовью, а кто их таинственный преследователь и правда ли то, что болтают деревенские жители?-Качество: WEB-DLRip [Рип с WEB-DL 720p]
Формат: AVI (XviD)
Видео: 1678 kb/s, 720х384
Аудио: Russian / English: AC3, 192 kb/s (2 ch)

MediaInfo

D:\Crazy.Bitches.2014.L2.WEB-DLRip.avi
General
Complete name : D:\Crazy.Bitches.2014.L2.WEB-DLRip.avi
Format : AVI
Format/Info : Audio Video Interleave
File size : 1.46 GiB
Duration : 1h 40mn
Overall bit rate : 2 076 Kbps
Writing application : VirtualDubMod 1.5.10.3 | www.virtualdub-fr.org || (build 2550/release)
Writing library : VirtualDubMod build 2550/release
Video #0
ID : 0
Format : MPEG-4 Visual
Format profile : Advanced [email protected]
Format settings, BVOP : Yes
Format settings, QPel : No
Format settings, GMC : No warppoints
Format settings, Matrix : Custom
Codec ID : XVID
Codec ID/Hint : XviD
Duration : 1h 40mn
Bit rate : 1 678 Kbps
Width : 720 pixels
Height : 384 pixels
Display aspect ratio : 1.875
Frame rate : 24.000 fps
Color space : YUV
Chroma subsampling : 4:2:0
Bit depth : 8 bits
Scan type : Progressive
Bits/(Pixel*Frame) : 0.253
Stream size : 1.18 GiB (81%)
Writing library : XviD 73
Audio #1
ID : 1
Format : AC-3
Format/Info : Audio Coding 3
Mode extension : CM (complete main)
Codec ID : 2000
Duration : 1h 40mn
Bit rate mode : Constant
Bit rate : 192 Kbps
Channel(s) : 2 channels
Channel positions : Front: L R
Sampling rate : 48.0 KHz
Bit depth : 16 bits
Video delay : 109ms
Stream size : 138 MiB (9%)
Alignment : Split accross interleaves
Interleave, duration : 42 ms (1.00 video frame)
Interleave, preload duration : 500 ms
Audio #2
ID : 2
Format : AC-3
Format/Info : Audio Coding 3
Mode extension : CM (complete main)
Codec ID : 2000
Duration : 1h 40mn
Bit rate mode : Constant
Bit rate : 192 Kbps
Channel(s) : 2 channels
Channel positions : Front: L R
Sampling rate : 48.0 KHz
Bit depth : 16 bits
Video delay : 13ms
Stream size : 138 MiB (9%)
Alignment : Split accross interleaves
Interleave, duration : 42 ms (1.00 video frame)
Interleave, preload duration : 500 ms

Скриншоты





Последний раз редактировалось: Suxrob89 (2015-05-08 07:54), всего редактировалось 2 раз(а)

Создавать темы 08-Май-2015 07:00

[Профиль]  [ЛС] 

Александр Гузов

Стаж: 4 года 10 месяцев

Сообщений: 112

Симпатии: 6

Название и первый скрин так и говорят "закройте эту раздачу")))

Создавать темы 08-Май-2015 07:09

[Профиль]  [ЛС] 

Davron1402

Стаж: 3 года 10 месяцев

Сообщений: 136

Симпатии: 122

По моему так, сумасшедшие девушки/Crazy Bitches

Создавать темы 08-Май-2015 13:49

[Профиль]  [ЛС] 
Показать сообщения:    
Ответить на тему

Текущее время: 19-Ноя 19:11

Часовой пояс: UTC + 5



Вы не можете начинать темы
Вы не можете отвечать на сообщения
Вы не можете редактировать свои сообщения
Вы не можете удалять свои сообщения
Вы не можете голосовать в опросах
Вы не можете прикреплять файлы к сообщениям
Вы не можете скачивать файлы