Раскопка / Dig / Сезон: 1 / Серии: 1-10 из 10 (С.Дж. Кларксон) [2015, Драма, HDTVRip] (MVO : NewStudio) (Original)

Ответить на тему
 

emilsky ®

Стаж: 7 лет 3 месяца

Сообщений: 2237

Симпатии: 610

Раскопка / Dig
Год выпуска: 2015
Страна: США, USA
Жанр: Драма
Продолжительность: 01:05:59
Перевод: Профессиональный многоголосый закадровый Доп. инфо о переводе NewStudio
Русские субтитры: нет
Режиссёр: С.Дж. Кларксон
В ролях: Яэль Эйтан, Зен МакГрат, Ори Феффер, Гай Селник, Брайан Барела, Ричард Бил, Дерек Блэкни
Описание: Питер, агент ФБР, базирующийся в Иерусалиме, в процессе расследования убийства молодой женщины-археолога открывает заговор, которому уже 2000 лет.
Качество: HDTVRip
Формат: AVI
Видео кодек: XviD
Аудио кодек: MP3
Видео: 1212 kb/s, 720x400
Аудио: Русский / Оригинал: MP3, 128 kb/s

MediaInfo

E:\Сериалы\Раскопки 1 сезон\Dig.s01e01.HDTVRip.NewStudio.TV.avi
General
Complete name : E:\Сериалы\Раскопки 1 сезон\Dig.s01e01.HDTVRip.NewStudio.TV.avi
Format : AVI
Format/Info : Audio Video Interleave
File size : 700 MiB
Duration : 1h 5mn
Overall bit rate : 1 483 Kbps
Writing application : VirtualDubMod 1.5.10.2 (build 2540/release)
Writing library : VirtualDubMod build 2540/release
Video #0
ID : 0
Format : MPEG-4 Visual
Format profile : Advanced [email protected]
Format settings, BVOP : 2
Format settings, QPel : No
Format settings, GMC : No warppoints
Format settings, Matrix : Default (MPEG)
Codec ID : XVID
Codec ID/Hint : XviD
Duration : 1h 5mn
Bit rate : 1 213 Kbps
Width : 720 pixels
Height : 400 pixels
Display aspect ratio : 16:9
Frame rate : 23.976 fps
Color space : YUV
Chroma subsampling : 4:2:0
Bit depth : 8 bits
Scan type : Progressive
Compression mode : Lossy
Bits/(Pixel*Frame) : 0.176
Stream size : 573 MiB (82%)
Writing library : XviD 64
Audio #1
ID : 1
Format : MPEG Audio
Format version : Version 1
Format profile : Layer 3
Mode : Joint stereo
Mode extension : MS Stereo
Codec ID : 55
Codec ID/Hint : MP3
Duration : 1h 5mn
Bit rate mode : Constant
Bit rate : 128 Kbps
Channel(s) : 2 channels
Sampling rate : 48.0 KHz
Compression mode : Lossy
Stream size : 60.4 MiB (9%)
Alignment : Aligned on interleaves
Interleave, duration : 42 ms (1.00 video frame)
Interleave, preload duration : 504 ms
Audio #2
ID : 2
Format : MPEG Audio
Format version : Version 1
Format profile : Layer 3
Mode : Joint stereo
Codec ID : 55
Codec ID/Hint : MP3
Duration : 1h 5mn
Bit rate mode : Constant
Bit rate : 128 Kbps
Channel(s) : 2 channels
Sampling rate : 48.0 KHz
Compression mode : Lossy
Stream size : 60.4 MiB (9%)
Alignment : Aligned on interleaves
Interleave, duration : 42 ms (1.00 video frame)
Interleave, preload duration : 504 ms
Writing library : LAME3.99r
Encoding settings : -m j -V 4 -q 2 -lowpass 17 -b 128

Скриншоты



Последний раз редактировалось: emilsky (2015-05-12 12:23), всего редактировалось 1 раз

Создавать темы 09-Май-2015 07:25

[Профиль]  [ЛС] 

emilsky ®

Стаж: 7 лет 3 месяца

Сообщений: 2237

Симпатии: 610

Полный первый сезон!

Создавать темы 09-Май-2015 07:26

[Профиль]  [ЛС] 

Zzz666

Стаж: 6 лет 11 месяцев

Сообщений: 65

Симпатии: 4

Очень плохо качает, по возможности пожалуйста раздайте на более приемлемых скоростях.

Создавать темы 11-Июн-2015 20:16

[Профиль]  [ЛС] 
Показать сообщения:    
Ответить на тему

Текущее время: 23-Окт 05:44

Часовой пояс: UTC + 5



Вы не можете начинать темы
Вы не можете отвечать на сообщения
Вы не можете редактировать свои сообщения
Вы не можете удалять свои сообщения
Вы не можете голосовать в опросах
Вы не можете прикреплять файлы к сообщениям
Вы не можете скачивать файлы