Связанная / Bound (Джаред Кон) [2015, США, Драма, триллер, HDRip] [datynet]

Ответить на тему
 

Каротажник ®

Стаж: 4 года 2 месяца

Сообщений: 195

Симпатии: 211

Связанная / Bound Страна: США
Жанр: Драма, триллер
Год выпуска: 2015--Продолжительность: 01:30:51
Перевод: Любительский одноголосый (datynet)--Режиссер: Джаред Кон
В ролях: Дэниэл Болдуин, Каризма Карпентер, Брайс Дрэйпер, Хэйли МакЛафлин, Майкл Монкс, Террелл Оуэнс, Стеффини Фроммани, Марк МакКлейн Уилсон--Описание: Дочь богатого брокера недвижимости влюбляется в молодого человека, который вводит ее в мир БДСМ. Используя своё недавно пробудившееся сексуальное мастерство, она, наконец, берет контроль над собственной жизнью в свои руки.-- 
--Качество видео: HDRip
Формат видео: AVI--Видео: Xvid 720x400 23.976fps 1822kbps
Аудио: MP3 44100Hz stereo 192kbps

MediaInfo

Format : AVI
Format/Info : Audio Video Interleave
File size : 1.28 GiB
Duration : 1h 30mn
Overall bit rate : 2 024 Kbps
Writing library : VirtualDub build 34753/release
Video
ID : 0
Format : MPEG-4 Visual
Format profile : Advanced [email protected]
Format settings, BVOP : Yes
Format settings, QPel : No
Format settings, GMC : No warppoints
Format settings, Matrix : Default (H.263)
Codec ID : XVID
Codec ID/Hint : XviD
Duration : 1h 30mn
Bit rate : 1 823 Kbps
Width : 720 pixels
Height : 400 pixels
Display aspect ratio : 16:9
Frame rate : 23.976 fps
Color space : YUV
Chroma subsampling : 4:2:0
Bit depth : 8 bits
Scan type : Progressive
Compression mode : Lossy
Bits/(Pixel*Frame) : 0.264
Stream size : 1.16 GiB (90%)
Writing library : XviD 64
Audio
ID : 1
Format : MPEG Audio
Format version : Version 1
Format profile : Layer 3
Codec ID : 55
Codec ID/Hint : MP3
Duration : 1h 30mn
Bit rate mode : Constant
Bit rate : 192 Kbps
Channel(s) : 2 channels
Sampling rate : 44.1 KHz
Compression mode : Lossy
Stream size : 125 MiB (9%)
Alignment : Split accross interleaves
Interleave, duration : 42 ms (1.00 video frame)
Interleave, preload duration : 500 ms

Скриншоты


Создавать темы 09-Май-2015 09:12

[Профиль]  [ЛС] 

axeman

Стаж: 5 лет 1 месяц

Сообщений: 380

Симпатии: 50

Опять про БДСМ.........печально

Создавать темы 09-Май-2015 12:10

[Профиль]  [ЛС] 

-OdilmaX-

Стаж: 2 года 9 месяцев

Сообщений: 425

Симпатии: 854

Штоооооооооооооо? ai

Создавать темы 09-Май-2015 12:46

[Профиль]  [ЛС] 

axeman

Стаж: 5 лет 1 месяц

Сообщений: 380

Симпатии: 50

935247Штоооооооооооооо? ai
Да узбагойся, собирали статистику у сексуально извращенцов....

Создавать темы 09-Май-2015 15:07

[Профиль]  [ЛС] 

-OdilmaX-

Стаж: 2 года 9 месяцев

Сообщений: 425

Симпатии: 854

935257
935247Штоооооооооооооо? ai
Да узбагойся, собирали статистику у сексуально извращенцов....
ag ag ag

Создавать темы 09-Май-2015 15:22

[Профиль]  [ЛС] 

-OdilmaX-

Стаж: 2 года 9 месяцев

Сообщений: 425

Симпатии: 854

Для тех кто не знаёт БДСМ

Создавать темы 09-Май-2015 15:26

[Профиль]  [ЛС] 

pirat

Стаж: 5 лет 7 месяцев

Сообщений: 216

Симпатии: 63

9 человек проголосовало
  • Режиссер: Джаред Кон
    в ролях:
  • Дэниэл Болдуин
  • Каризма Карпентер
  • Брайс Дрэйпер
  • Хэйли МакЛафлин
  • Майкл Монкс
  • Террелл Оуэнс
  • Стеффини Фроммани
  • Марк МакКлейн Уилсон
-По здравому размышлению, можно понять что они и проголосовали.

Создавать темы 09-Май-2015 21:51

[Профиль]  [ЛС] 

timawow1

Стаж: 7 лет

Сообщений: 59

Симпатии: 32

Автор может укажете возрастное ограни4ение там хотя бы 16+?

Создавать темы 13-Май-2015 17:18

[Профиль]  [ЛС] 

TimaK

Стаж: 6 лет 7 месяцев

Сообщений: 129

Симпатии: 23

Без этих БСДМ сцен фильм норм смореть можно.

Создавать темы 13-Май-2015 19:36

[Профиль]  [ЛС] 

-OdilmaX-

Стаж: 2 года 9 месяцев

Сообщений: 425

Симпатии: 854

935916Без этих БСДМ сцен фильм норм смореть можно.
cогласен

Создавать темы 14-Май-2015 14:13

[Профиль]  [ЛС] 

mars751

Стаж: 5 лет 8 месяцев

Сообщений: 227

Симпатии: 113

начал смотреть. фильм не понравился. я даже не стал его до конца смотреть. не знаю может кому то другому он будет по вкусу.да и рейтинг говорит об фильме....

Создавать темы 18-Май-2015 22:33

[Профиль]  [ЛС] 

samud

Стаж: 5 лет 7 месяцев

Сообщений: 108

Симпатии: 24

с каждым годом фильмы всё хуже и хуже, только сборы собирают денег загрибают а о качестве фильмов никто не задумываются

Создавать темы 19-Май-2015 16:51

[Профиль]  [ЛС] 
Показать сообщения:    
Ответить на тему

Текущее время: 18-Дек 17:38

Часовой пояс: UTC + 5



Вы не можете начинать темы
Вы не можете отвечать на сообщения
Вы не можете редактировать свои сообщения
Вы не можете удалять свои сообщения
Вы не можете голосовать в опросах
Вы не можете прикреплять файлы к сообщениям
Вы не можете скачивать файлы