Чёрный и белый 2: Рассвет справедливости / Pi Zi Ying Xiong 2 (Юэ-Сун Цай) [2014, Китай, Тайвань, Гонконг, боевик, HDRip] (VO)

Ответить на тему
 

Davron1402 ®

Стаж: 3 года 9 месяцев

Сообщений: 136

Симпатии: 122

Чёрный и белый 2: Рассвет справедливости / Pi Zi Ying Xiong 2- Страна: Китай, Тайвань, Гонконг
Жанр: боевик
Год выпуска: 2014
Продолжительность: 02:05:23
Перевод: Одноголосый закадровый
Cубтитры: нет
Режиссер: Юэ-Сун Цай
В ролях: Кенни Лин, Цзе Кай Сю, Терри Кван, Coulee Nazha, Джанин Чан, Марк Чао, Ши-Чжи Чжин, Бо Хуан, Те Мэн Кан, Мэнди Лью
Описание: Уже хорошо знакомый нам Ву Йин-Сьон по прозвищу «Герой» (Марк Чао) оказывается в эпицентре очередной катастрофы – по всему Харбор-сити происходит серия взрывов, осуществленных террористами-смертниками. Потихоньку центр города отрезается от остального мира, рушатся тоннели и мосты, связывающие его с «большой землей», и все это явно неспроста. С помощью случайного напарника (Лин Генсин) Герой начинает раскручивать эту историю, но времени у них в обрез.
-Качество видео: HDRip
Формат видео: AVI
Видео: MPEG-4 Visual, 720 x 304 (2.35:1), 23.976 fps, 1 352 Kbps
Аудио: AC-3, 48.0 KHz, 2 channels, 192 Kbps- 

MediaInfo

Имя файла: Chjornyj.i.belyj.2.Rassvet.spravedlivosti.2014.L2.HDRip.avi
Формат файла: .avi (AVI)
Размер файла: 1.36 GB
Длительность: 2h 5mn
Навигация по главам: Нет
Bitrate (все потоки): 1 553 Kbps
Название: Chjornyj.i.belyj.2.Rassvet.spravedlivosti.2014.L2.HDRip
Тип потока: Видео
Длительность: 02:05:23
Кодек: MPEG-4 Visual
Кодек/Профиль: Advanced [email protected]
Кодек/ID: XVID
Размеры изображения: 720 x 304 (2.35:1)
Частота кадров: 23.976 fps
Размер потока: 1.18 GiB (87%)
Битрейт: 1 352 Kbps
Библиотека кодирования: XviD 73
Цветовое пространство: YUV
Тип развёртки: Progressive
Глубина: 8 bits
Тип потока: Звук #1
Длительность: 02:05:23.737
Кодек: AC-3
Кодек/ID: 2000
Частота дискретизации: 48.0 KHz
Каналов: 2 channels
Битрейт: 192 Kbps
Битрейт/тип: Constant
Размер потока: 172 MiB (12%)
Глубина: 16 bits
Метод сжатия: Lossy

Скриншоты












Последний раз редактировалось: Davron1402 (2015-05-11 14:51), всего редактировалось 2 раз(а)

Создавать темы 09-Май-2015 10:07

[Профиль]  [ЛС] 

Davron1402 ®

Стаж: 3 года 9 месяцев

Сообщений: 136

Симпатии: 122

Вот это кино!

Создавать темы 10-Май-2015 09:00

[Профиль]  [ЛС] 
Показать сообщения:    
Ответить на тему

Текущее время: 24-Окт 09:17

Часовой пояс: UTC + 5



Вы не можете начинать темы
Вы не можете отвечать на сообщения
Вы не можете редактировать свои сообщения
Вы не можете удалять свои сообщения
Вы не можете голосовать в опросах
Вы не можете прикреплять файлы к сообщениям
Вы не можете скачивать файлы