10 правил / 10 pravidel jak sbalit holku (Карел Янак) [2014, Чехия, мелодрама, комедия, HDRip] (VO)

Ответить на тему
 

Davron1402 ®

Стаж: 3 года 8 месяцев

Сообщений: 136

Симпатии: 122

10 правил / 10 pravidel jak sbalit holku- Страна: Чехия
Жанр: мелодрама, комедия
Год выпуска: 2014
Продолжительность: 01:36:20
Перевод: Одноголосый закадровый
Cубтитры: нет
Режиссер: Карел Янак
В ролях: Кристина Сварипска, Мирослав Донутил, Ян Долански, Ладислав Жупанич, Анна Шишкова, Якуб Прахар, Жерар Робер Гратадур, Мартин Странский, Тереза Нвотова, Мартин Доленски
Описание: Герой фильма Марек влюбляется в потрясающей красоты девушку. Но как завоевать ее сердце, ведь он обычный студент, обожающий гороскопы. Друзья решают помочь ему, обратившись за помощью к его отцу, написавшему бестселлер "Как покорить девушку"...-Качество видео: HDRip
Формат видео: AVI
Видео: Xvid, 720 x 304 (2.35:1), 24.000 fps, 1 767 Kbps
Аудио: AC-3, 48.0 KHz, 2 channels, 192 Kbps- 

MediaInfo

Расположение: D:10.pravidel.jak.sbalit.holku.2014.L1.HDRip.avi
Имя файла: 10.pravidel.jak.sbalit.holku.2014.L1.HDRip.avi
Формат файла: .avi (AVI)
Размер файла: 1.46 GB
Длительность: 1h 36mn
Навигация по главам: Нет
Bitrate (все потоки): 2 165 Kbps
Название: 10.pravidel.jak.sbalit.holku.2014.L1.HDRip
Тип потока: Видео
Длительность: 01:36:20
Кодек: MPEG-4 Visual
Кодек/Профиль: Advanced [email protected]
Кодек/ID: XVID
Размеры изображения: 720 x 304 (2.35:1)
Частота кадров: 24.000 fps
Размер потока: 1.19 GiB (82%)
Битрейт: 1 767 Kbps
Библиотека кодирования: XviD 73
Цветовое пространство: YUV
Тип развёртки: Progressive
Глубина: 8 bits
Тип потока: Звук #1
Длительность: 01:36:20.880
Кодек: AC-3
Кодек/ID: 2000
Частота дискретизации: 48.0 KHz
Каналов: 2 channels
Битрейт: 192 Kbps
Битрейт/тип: Constant
Размер потока: 132 MiB (9%)
Глубина: 16 bits
Метод сжатия: Lossy
Тип потока: Звук #2
Длительность: 01:36:20.880
Кодек: AC-3
Кодек/ID: 2000
Частота дискретизации: 48.0 KHz
Каналов: 2 channels
Битрейт: 192 Kbps
Битрейт/тип: Constant
Размер потока: 132 MiB (9%)
Глубина: 16 bits
Метод сжатия: Lossy

Скриншоты






Последний раз редактировалось: Davron1402 (2015-05-09 12:15), всего редактировалось 1 раз

Создавать темы 09-Май-2015 11:39

[Профиль]  [ЛС] 
Показать сообщения:    
Ответить на тему

Текущее время: 25-Сен 20:22

Часовой пояс: UTC + 5



Вы не можете начинать темы
Вы не можете отвечать на сообщения
Вы не можете редактировать свои сообщения
Вы не можете удалять свои сообщения
Вы не можете голосовать в опросах
Вы не можете прикреплять файлы к сообщениям
Вы не можете скачивать файлы