Неудержимая Юность / Дорога Юности / Ao Haru Ride (Ёсимура Ай) [TV] [12 из 12] [без хардсаба] [RUS(ext), JAP+SUB] [2014 г., Комедия, Драма, Романтика, Школа, Сёдзе, Повседневность, BDRip] [720p]

Ответить на тему
 

Alex_38 ®

Стаж: 5 лет 8 месяцев

Сообщений: 336

Симпатии: 37

- Страна: Япония
Дата выпуска: c 08.07.2014 по 23.09.2014
Жанр: Комедия, Драма, Романтика, Школа, Сёдзе, Повседневность
Категория: TV
Количество эпизодов: 12 из 12
Продолжительность: 25 минут-Перевод:
  • Русские субтитры от Kermit (полные/вспомогательные)
  • Русская звуковая дорожка трехголосая от Zendos & Eladiel & Absurd
-Режиссёр: Ёсимура Ай
Автор оригинала: Сакисака Ио
Студия: Production I.G-Описание:
В средней школе Футаба Ёсиока была тихой и скромной девочкой. Парни смотрели на нее как на типичную Ямато Надэсико (впрочем, без серьезных намерений), а одноклассницы дружно ненавидели. Единственной отдушиной было общение с Ко Танакой, тоже тихим и невысоким парнем, но он уехал прежде, чем девушка смогла сказать о своих чувствах. Чтобы не быть изгоем, в старшей школе героиня надела маску дружелюбной томбойки, безразличной к своей внешности и манерам. Люди к ней потянулись… и тут Футаба встретила старого знакомого, но уже под именем Ко Мабути.
Ко не только сменил фамилию, но вытянулся, заматерел и превратился в холодного красавчика, этакого загадочного принца. На легкие намеки он спокойно ответил, что не заинтересован в отношениях, так как многое изменилось, и Футаба тут ничем не поможет. А вот это он зря – ведь каждая влюбленная девушка свято верит, что уж она-то сможет излечить сердце и душу своего избранника. Пускай оба наделали (и наделают) немало ошибок, шанс все равно есть, ведь первая любовь срывает любые маски – и «разбитной девчонки», и «одинокого волка». Такова дорога юности!
© Hollow, World Art-Фамилия Танака («центр (рисового) поля») – одна из самых распространенных в Японии, подчеркивает обыденность, заурядность персонажа. Смена ее на необычную фамилию Мабути («конь бездны» или «конь из глубин») символизирует глубокие перемены в жизни героя и подходит к его имени (Ко – «водная ширь»).-Информационные ссылки: AniDB || World Art || MAL-Качество: BDRip
Энкод: Winter - RG Pantheon
Тип видео: без хардсаба, без линковки
Формат: mkv
Видео: x264 (Hi10p), 1280x720, ~4100 Kbps, 23.976 fps
Аудио JAP: Vorbis, 48000Hz, ~256 Kbps, 2ch
Аудио RUS: AC3, 48000Hz, ~192 Kbps, 2ch (внешними файлами)
-

Отличия от других раздач

https://tas-ix.net/viewtopic.php?t=101830 - BDRip

Подробные тех. данные

General
Unique ID                   : 175070901855755470756460083230017580659 (0x83B56DE1DA46CCC0959FC56F8C5FEE73)
Complete name               : ***\Ao Haru Ride [BD] [720p]\[Winter] Ao Haru Ride 01 [BDrip 1280x720 x264 Vorbis].mkv
Format                      : Matroska
Format version              : Version 2
File size                   : 745 MiB
Duration                    : 23mn 41s
Overall bit rate mode       : Variable
Overall bit rate            : 4 394 Kbps
Encoded date                : UTC 2014-10-04 16:56:16
Writing application         : mkvmerge v2.9.8 ('C'est le bon') built on Aug 13 2009 12:49:06
Writing library             : libebml v0.7.7 + libmatroska v0.8.1
Video
ID                          : 1
Format                      : AVC
Format/Info                 : Advanced Video Codec
Format profile              : High [email protected]
Format settings, CABAC      : Yes
Format settings, ReFrames   : 9 frames
Codec ID                    : V_MPEG4/ISO/AVC
Duration                    : 23mn 41s
Bit rate                    : 4 051 Kbps
Width                       : 1 280 pixels
Height                      : 720 pixels
Display aspect ratio        : 16:9
Frame rate mode             : Constant
Frame rate                  : 23.976 fps
Color space                 : YUV
Chroma subsampling          : 4:2:0
Bit depth                   : 10 bits
Scan type                   : Progressive
Bits/(Pixel*Frame)          : 0.183
Stream size                 : 687 MiB (92%)
Writing library             : x264 core 132 r2309 3b1f1f7
Encoding settings           : cabac=1 / ref=9 / deblock=1:-2:-2 / analyse=0x3:0x133 / me=umh / subme=9 / psy=1 / psy_rd=0.90:0.00 / mixed_ref=1 / me_range=24 / chroma_me=1 / trellis=2 / 8x8dct=1 / cqm=0 / deadzone=21,11 / fast_pskip=1 / chroma_qp_offset=-2 / threads=12 / lookahead_threads=2 / sliced_threads=0 / nr=0 / decimate=0 / interlaced=0 / bluray_compat=0 / constrained_intra=0 / bframes=8 / b_pyramid=2 / b_adapt=2 / b_bias=0 / direct=1 / weightb=1 / open_gop=0 / weightp=2 / keyint=250 / keyint_min=23 / scenecut=40 / intra_refresh=0 / rc=crf / mbtree=0 / crf=15.7 / qcomp=0.70 / qpmin=9 / qpmax=40 / qpstep=4 / ip_ratio=1.40 / pb_ratio=1.30 / aq=1:0.90
Default                     : No
Forced                      : No
Audio
ID                          : 2
Format                      : Vorbis
Format settings, Floor      : 1
Codec ID                    : A_VORBIS
Duration                    : 23mn 41s
Bit rate mode               : Variable
Bit rate                    : 256 Kbps
Channel(s)                  : 2 channels
Sampling rate               : 48.0 KHz
Compression mode            : Lossy
Stream size                 : 43.4 MiB (6%)
Writing library             : libVorbis (Schaufenugget) (20101101 (Schaufenugget))
Language                    : Japanese
Default                     : Yes
Forced                      : No

Скриншоты

Создавать темы 09-Май-2015 12:46

[Профиль]  [ЛС] 

MeiDoCorpse

Стаж: 4 года 6 месяцев

Сообщений: 222

Симпатии: 14

Alex_38, смотрел? А то Сергей отрипал, а я всё в раздумьях стоит ли тратить место на харде (которого итак мне вечно не хватает, боюсь придётся ещё один покупать) или нет. Сёдзё всегда меня напрягает...

Создавать темы 09-Май-2015 15:47

[Профиль]  [ЛС] 

Alex_38 ®

Стаж: 5 лет 8 месяцев

Сообщений: 336

Симпатии: 37

MeiDoCorpse, не смотрел еще. От мыши слышал, что нормальное. Можешь сам скатать, посмотреть и если не понравится удалить)
Сергей - Реин?
705170Отличная сёдзе :3 Production I.G не подвел )

Создавать темы 09-Май-2015 17:55

[Профиль]  [ЛС] 

Азиз87

Стаж: 5 лет

Сообщений: 752

Симпатии: 143

Хорошая вещь посмотреть стоит. Одно только раздражает - это зацикливание ГГ на смерти *** ( стало интересно?)
Последняя серия намекает на 2-ой сезон?

Создавать темы 09-Май-2015 19:26

[Профиль]  [ЛС] 

MeiDoCorpse

Стаж: 4 года 6 месяцев

Сообщений: 222

Симпатии: 14

Alex_38, Сергей = sergey_krs, Рейна я бы качать не стал...

Создавать темы 10-Май-2015 04:19

[Профиль]  [ЛС] 

Alex_38 ®

Стаж: 5 лет 8 месяцев

Сообщений: 336

Симпатии: 37

MeiDoCorpse, а да, Рейн вроде Федором был. Я ток 1 рип Сергея скачивал, но всё равно 1080п не для моего компа)

Создавать темы 10-Май-2015 12:15

[Профиль]  [ЛС] 
Показать сообщения:    
Ответить на тему

Текущее время: 21-Ноя 01:56

Часовой пояс: UTC + 5



Вы не можете начинать темы
Вы не можете отвечать на сообщения
Вы не можете редактировать свои сообщения
Вы не можете удалять свои сообщения
Вы не можете голосовать в опросах
Вы не можете прикреплять файлы к сообщениям
Вы не можете скачивать файлы