Цветы / Flowers (Фил Стивенс) [2015, США, ужасы, сюрреализм, DVDRip]

Ответить на тему
 

akmal-19-66 ®

Стаж: 2 года 7 месяцев

Сообщений: 23

Симпатии: 120

Цветы / Flowers
Страна: США
Жанр: ужасы, сюрреализм
Год выпуска: 2015
Продолжительность: 01:20:31
Перевод: Не требуется
Cубтитры: нет
Режиссер: Фил Стивенс
В ролях: Колетт Кенни МакКена, Кристал Фитч, Анастасия Блю, Таня Эрин Паоли, кара А. Христиансен, Макария Цапторис, Брайан У. Лор, Рэйчел Килинг
Описание: Это абстрактный, сюрреалистичный фильм ужасов? Cюжет которого сосредотачивается на шести мертвых женщинах, которые оживают в подполье дома их убийцы.
Качество видео: DVDRip
Формат видео: AVI
Видео: XviD, 720x400, 2140 Kbps
Аудио: AC3, 2 ch, 256 Kbps

MediaInfo

General
Complete name : E:\download\Flowers (2015) DVDRip.avi
Format : AVI
Format/Info : Audio Video Interleave
Format profile : OpenDML
File size : 1.35 GiB
Duration : 1h 20mn
Overall bit rate : 2 402 Kbps
Writing application : AVI-Mux GUI 1.17.8.3, Feb 16 201019:42:50
Video
ID : 0
Format : MPEG-4 Visual
Format profile : Advanced [email protected]
Format settings, BVOP : No
Format settings, QPel : No
Format settings, GMC : 3 warppoints
Format settings, Matrix : Default (MPEG)
Codec ID : XVID
Codec ID/Hint : XviD
Duration : 1h 20mn
Bit rate : 2 140 Kbps
Width : 720 pixels
Height : 400 pixels
Display aspect ratio : 16:9
Frame rate : 29.970 fps
Color space : YUV
Chroma subsampling : 4:2:0
Bit depth : 8 bits
Scan type : Progressive
Bits/(Pixel*Frame) : 0.248
Stream size : 1.20 GiB (89%)
Writing library : XviD 62
Audio
ID : 1
Format : AC-3
Format/Info : Audio Coding 3
Mode extension : CM (complete main)
Codec ID : 2000
Duration : 1h 20mn
Bit rate mode : Constant
Bit rate : 256 Kbps
Channel(s) : 2 channels
Channel positions : Front: L R
Sampling rate : 48.0 KHz
Stream size : 147 MiB (11%)
Alignment : Aligned on interleaves
Interleave, duration : 64 ms (1.92 video frames)
Interleave, preload duration : 192 ms
Title : rus_147

Скриншоты



Создавать темы 10-Май-2015 01:21

[Профиль]  [ЛС] 

-OdilmaX-

Стаж: 2 года 8 месяцев

Сообщений: 425

Симпатии: 854

Фильм ваще отстой!

Создавать темы 10-Май-2015 10:38

[Профиль]  [ЛС] 

drnemo

Стаж: 5 лет 10 месяцев

Сообщений: 89

Симпатии: 14

сюрреализм --- что это значить?

Создавать темы 10-Май-2015 20:59

[Профиль]  [ЛС] 

Deadушка

Стаж: 6 лет 7 месяцев

Сообщений: 78

Симпатии: 89

drnemo,

ГУГЛ В ПОМОЩЬ!

Создавать темы 12-Май-2015 18:44

[Профиль]  [ЛС] 
Показать сообщения:    
Ответить на тему

Текущее время: 13-Дек 10:36

Часовой пояс: UTC + 5



Вы не можете начинать темы
Вы не можете отвечать на сообщения
Вы не можете редактировать свои сообщения
Вы не можете удалять свои сообщения
Вы не можете голосовать в опросах
Вы не можете прикреплять файлы к сообщениям
Вы не можете скачивать файлы