Колобаха (Дмитрий Васильев) [2008, Россия, трэш, DVDRip]

Ответить на тему
 

kat222000 ®

Стаж: 6 лет 6 месяцев

Сообщений: 608

Симпатии: 1055

--Колобаха--Страна: Россия
Жанр: трэш
Год выпуска: 2008
Продолжительность: 01:33:35-Перевод: Не требуется
Cубтитры: нет-Режиссер: Дмитрий Васильев-В ролях: Вера Подковырова, Сергей Брежнев, Константин Облаухов, Юрий Владовский-Описание: Действие происходит в мире, жестоко разделённом на два лагеря. В первом — Россия и Китай, во втором — Соединённые Штаты. Американские агрессоры, потерпев поражение в честной конкурентной борьбе систем, портят климат на планете. В результате Россия и Китай вот уже 80 лет погружены в вечную зиму, а в Соединённых Штатах — постоянное лето.
Молодой, но очень талантливый русский учёный Андрей Хворобаев открывает, что климат управляется Осью Перельмана, расположенной в Бурятии. Империалистические акулы во главе с Президентом США, ведомые жаждой наживы и всемирного господства, развязывают руки гнусному нацистскому палачу — профессору доктору Губке. Этот монстр путём бесчеловечных экспериментов делает из простых американских парней ужасного зомби-кадавра, призванного хранить Ось Перельмана.
Экспедиция русских учёных, посланная для исправления глобальной несправедливости в Бурятию, отыскивает русский конец Оси Перельмана. Однако им противостоит безжалостное творение нацистского преступника. Губке и империалистические наймиты-шпионы братья Россомахины Экспедиция гибнет. Однако Андрей жив, и борьба продолжается! Герою поможет православная вера и родная земля, которую олицетворяет бурятка Вера. Бессмысленны козни хитроумного оборотня-проповедника майора Смачкова. Враг будет повержен и Солнце воссияет над миром!- -Качество видео: DVDRip
Формат видео: AVI
Видео кодек: Xvid
Аудио кодек: AC3
Видео: XviD, 1823 Кбит/сек, 720x384, 25 кадр/сек, 0.264 бит/пиксель
Аудио: AC-3, 256 Кбит/сек, 2 канала, 48.0 КГц-

MediaInfo

Формат : AVI
Формат/Информация : Audio Video Interleave
Профиль формата : OpenDML
Настройки формата : rec
Размер файла : 1,36 Гбайт
Продолжительность : 1 ч. 33 м.
Общий поток : 2084 Кбит/сек
Программа кодирования : AVI-Mux GUI 1.17.8.3, Feb 16 201019:42:50
Видео
Идентификатор : 0
Формат : MPEG-4 Visual
Профиль формата : Advanced [email protected]
Параметр BVOP формата : 1
Параметр QPel формата : Нет
Параметр GMC формата : Без точки перехода
Параметр матрицы формата : Default (H.263)
Режим смешивания : Сжатый битовый поток
Идентификатор кодека : XVID
Идентификатор кодека/Подсказка : XviD
Продолжительность : 1 ч. 33 м.
Битрейт : 1823 Кбит/сек
Ширина : 720 пикс.
Высота : 384 пикс.
Соотношение сторон : 1,875
Частота кадров : 25,000 кадр/сек
Цветовое пространство : YUV
Подвыборка цветности : 4:2:0
Битовая глубина : 8 бит
Тип развёртки : Прогрессивная
Метод сжатия : С потерями
Бит/(Пиксели*Кадры) : 0.264
Размер потока : 1,19 Гбайт (87%)
Библиотека кодирования : XviD 1.2.1 (UTC 2008-12-04)
Аудио
Идентификатор : 1
Формат : AC-3
Формат/Информация : Audio Coding 3
Расширение режима : CM (complete main)
Идентификатор кодека : 2000
Продолжительность : 1 ч. 33 м.
Вид битрейта : Постоянный
Битрейт : 256 Кбит/сек
Канал(ы) : 2 канала(ов)
Расположение каналов : Front: L R
Частота : 48,0 КГц
Битовая глубина : 16 бит
Метод сжатия : С потерями
Размер потока : 171 Мбайт (12%)
Выравнивание : Соединение по промежуткам
Продолжительность промежутка : 64 мс. (1,60 видеокадров)
Время предзагрузки промежутка : 192 ms
Заголовок : Original
-

Скриншоты



- - -
-

Создавать темы 10-Май-2015 10:44

[Профиль]  [ЛС] 
Показать сообщения:    
Ответить на тему

Текущее время: 23-Окт 00:24

Часовой пояс: UTC + 5



Вы не можете начинать темы
Вы не можете отвечать на сообщения
Вы не можете редактировать свои сообщения
Вы не можете удалять свои сообщения
Вы не можете голосовать в опросах
Вы не можете прикреплять файлы к сообщениям
Вы не можете скачивать файлы