Каллас навсегда / Callas Forever (Франко Дзеффирелли / Franco Zeffirelli) [2002, Италия, Франция, Испания, Великобритания, Румыния, драма, биография, DVDRip] (MVO) (Original Eng)

Ответить на тему
 

IQBOT ®

Стаж: 6 лет 6 месяцев

Сообщений: 449

Симпатии: 81

Каллас навсегда / Callas Forever
Страна: Италия, Франция, Испания, Великобритания, Румыния
Жанр: драма, биография
Год выпуска: 2002
Продолжительность: 1:44:09
Перевод: Профессиональный (многоголосый закадровый)
Cубтитры: нет
Оригинальная аудиодорожка: английский
Режиссер: Франко Дзеффирелли / Franco Zeffirelli
В ролях: Фанни Ардан, Джереми Айронс, Джоан Плаурайт, Джей Родан, Гэбриель Джарко, Мануэль Де Блас, Justino Díaz, Jean Dalric, Стивен Биллингтон, Анна Лелио
Описание: Роскошь и красота подлинной истории любви легенды оперной сцены, таинственной и роковой Марии Каллас. Уединившись в парижских апартаментах, звезда «празднует» закат своей оперной карьеры и личной жизни.
Мария уверяет себя, что ее лучшие дни позади. Но ее друг и верный продюсер Ларри Келли убежден в обратном. Успех, и грандиозный, еще как возможен, если Мария согласится сниматься в новых фильмах, используя старые записи. Каллас соглашается, и слава стремительно возвращается к примадонне. Воодушевленная триумфом, певица бросается в авантюру: теперь она хочет петь великую «Тоску».
Проект стоит огромных денег, а Мария ставит одно, очень суровое условие… И все же верный Ларри идет на риск! Публике не суждено знать о волшебстве, но легенда о нем будет жить вечно.
 
Качество видео: DVDRip
Формат видео: AVI
Видео: XviD 704x368 (1.91:1), 25 fps, XviD Final 1.0.3 (build 37) ~1485 kbps avg, 0.23 bit/pixel
Аудио 1: 48 kHz, AC3 Dolby Digital, 2/0 (L,R) ch, ~224.00 kbps avg, русский MVO
Аудио 2: 48 kHz, AC3 Dolby Digital, 2/0 (L,R) ch, ~224.00 kbps avg, русский MVO
Аудио 3: 48 kHz, AC3 Dolby Digital, 2/0 (L,R) ch, ~224.00 kbps avg, english

MediaInfo

General
Complete name : Каллас навсегда 2002.avi
Format : AVI
Format/Info : Audio Video Interleave
File size : 1.58 GiB
Duration : 1h 44mn
Overall bit rate : 2 178 Kbps
Writing application : VirtualDubMod 1.5.10.2 (build 2540/release)
Writing library : VirtualDubMod build 2540/release
Video
ID : 0
Format : MPEG-4 Visual
Format profile : Advanced [email protected]
Format settings, BVOP : Yes
Format settings, QPel : No
Format settings, GMC : No warppoints
Format settings, Matrix : Default (H.263)
Codec ID : XVID
Codec ID/Hint : XviD
Duration : 1h 44mn
Bit rate : 1 487 Kbps
Width : 704 pixels
Height : 368 pixels
Display aspect ratio : 1.913
Frame rate : 25.000 fps
Color space : YUV
Chroma subsampling : 4:2:0
Bit depth : 8 bits
Scan type : Progressive
Compression mode : Lossy
Bits/(Pixel*Frame) : 0.230
Stream size : 1.08 GiB (68%)
Writing library : XviD 1.0.3 (UTC 2004-12-20)
Audio #1
ID : 1
Format : AC-3
Format/Info : Audio Coding 3
Codec ID : 2000
Duration : 1h 43mn
Bit rate mode : Constant
Bit rate : 224 Kbps
Channel(s) : 2 channels
Sampling rate : 48.0 KHz
Compression mode : Lossy
Stream size : 167 MiB (10%)
Alignment : Split accross interleaves
Interleave, duration : 40 ms (1.00 video frame)
Interleave, preload duration : 512 ms
Audio #2
ID : 2
Format : AC-3
Format/Info : Audio Coding 3
Mode extension : CM (complete main)
Format settings, Endianness : Big
Codec ID : 2000
Duration : 1h 44mn
Bit rate mode : Constant
Bit rate : 224 Kbps
Channel(s) : 2 channels
Channel positions : Front: L R
Sampling rate : 48.0 KHz
Bit depth : 16 bits
Compression mode : Lossy
Stream size : 167 MiB (10%)
Alignment : Aligned on interleaves
Interleave, duration : 40 ms (1.00 video frame)
Interleave, preload duration : 512 ms
Audio #3
ID : 3
Format : AC-3
Format/Info : Audio Coding 3
Mode extension : CM (complete main)
Format settings, Endianness : Big
Codec ID : 2000
Duration : 1h 44mn
Bit rate mode : Constant
Bit rate : 224 Kbps
Channel(s) : 2 channels
Channel positions : Front: L R
Sampling rate : 48.0 KHz
Bit depth : 16 bits
Compression mode : Lossy
Stream size : 167 MiB (10%)
Alignment : Aligned on interleaves
Interleave, duration : 40 ms (1.00 video frame)
Interleave, preload duration : 512 ms

Скриншот c названием фильма

Скриншоты

Создавать темы 10-Май-2015 19:45

[Профиль]  [ЛС] 

Каротажник

Стаж: 3 года 10 месяцев

Сообщений: 195

Симпатии: 211

IQBOT, скриншоты не соответствуют Тех,данным перезалейте

Создавать темы 10-Май-2015 20:47

[Профиль]  [ЛС] 

IQBOT ®

Стаж: 6 лет 6 месяцев

Сообщений: 449

Симпатии: 81

935461IQBOT, скриншоты не соответствуют Тех,данным перезалейте
соответствуют. 704х368, как и указано в тех.данных.

Создавать темы 10-Май-2015 20:54

[Профиль]  [ЛС] 
Показать сообщения:    
Ответить на тему

Текущее время: 19-Авг 02:48

Часовой пояс: UTC + 5



Вы не можете начинать темы
Вы не можете отвечать на сообщения
Вы не можете редактировать свои сообщения
Вы не можете удалять свои сообщения
Вы не можете голосовать в опросах
Вы не можете прикреплять файлы к сообщениям
Вы не можете скачивать файлы