Американский бургер / American Burger (Джохан Бромандер, Бонита Дрэйк) [2014, Швеция, Little Big Productions, Ужасы, Комедия, DVDRip] (DVO)

Ответить на тему
 

akmal-19-66 ®

Стаж: 2 года 3 месяца

Сообщений: 23

Симпатии: 120

Американский бургер / American Burger Страна: Швеция, Little Big Productions
Жанр: Ужасы, Комедия
Год выпуска: 2014
Продолжительность: 01:17:03
Перевод: Любительский (двухголосый закадровый)
Cубтитры: нет
Режиссер: Джохан Бромандер, Бонита Дрэйк
В ролях: Мадлен Борг, Бенжамин Брук, Малин Даль, Пер Энг, Эрика Эрикссон, Робин Эрикссон, Гэбриел Фрейлих
Продюсер:Андерс Гранстром, Анна Г. Магнусдоттир
Описание: Студенты — спортсмены, ботаники и чирлидерши отправляются в Европу в путешествие. Они там натыкаются на интересный стенд- продажа 100% американских бургеров. Заинтересовавшись они посещают завод бургеров, глубоко в лесах и попадают в западню. Дорожное путешествие превращается в борьбу за выживание. Кого пихают на место коров в американские бургеры?
Качество видео: DVDRip
Формат видео: AVI
Видео: Xvid, ~1800 kbps, 720x384
Аудио: AC3, 48.0 kHz, 2 ch, 256 kbps (Русский)
Аудио 2: AC3, 48.0 kHz, 6 ch, 448 kbps (Английский)

MediaInfo

General
Complete name : E:\download\American.Burger.2014.DVO.DVDRip.NNM-CLUB.avi
Format : AVI
Format/Info : Audio Video Interleave
File size : 1.36 GiB
Duration : 1h 17mn
Overall bit rate : 2 518 Kbps
Writing application : VirtualDubMod 1.5.10.3 | www.virtualdub-fr.org || (build 2550/release)
Writing library : VirtualDubMod build 2550/release
Video
ID : 0
Format : MPEG-4 Visual
Format profile : [email protected]
Format settings, BVOP : No
Format settings, QPel : No
Format settings, GMC : No warppoints
Format settings, Matrix : Default (H.263)
Codec ID : XVID
Codec ID/Hint : XviD
Duration : 1h 17mn
Bit rate : 1 800 Kbps
Width : 720 pixels
Height : 384 pixels
Display aspect ratio : 1.875
Frame rate : 25.000 fps
Color space : YUV
Chroma subsampling : 4:2:0
Bit depth : 8 bits
Scan type : Progressive
Bits/(Pixel*Frame) : 0.260
Stream size : 992 MiB (71%)
Writing library : XviD 1.1.2 (UTC 2006-11-01)
Audio #1
ID : 1
Format : AC-3
Format/Info : Audio Coding 3
Mode extension : CM (complete main)
Codec ID : 2000
Duration : 1h 17mn
Bit rate mode : Constant
Bit rate : 256 Kbps
Channel(s) : 2 channels
Channel positions : Front: L R
Sampling rate : 48.0 KHz
Stream size : 141 MiB (10%)
Alignment : Split accross interleaves
Interleave, duration : 40 ms (1.00 video frame)
Interleave, preload duration : 500 ms
Audio #2
ID : 2
Format : AC-3
Format/Info : Audio Coding 3
Mode extension : CM (complete main)
Codec ID : 2000
Duration : 1h 17mn
Bit rate mode : Constant
Bit rate : 448 Kbps
Channel(s) : 6 channels
Channel positions : Front: L C R, Side: L R, LFE
Sampling rate : 48.0 KHz
Stream size : 247 MiB (18%)
Alignment : Split accross interleaves
Interleave, duration : 40 ms (1.00 video frame)
Interleave, preload duration : 500 ms

Скриншоты




Создавать темы 10-Май-2015 23:32

[Профиль]  [ЛС] 
Показать сообщения:    
Ответить на тему

Текущее время: 20-Авг 13:07

Часовой пояс: UTC + 5



Вы не можете начинать темы
Вы не можете отвечать на сообщения
Вы не можете редактировать свои сообщения
Вы не можете удалять свои сообщения
Вы не можете голосовать в опросах
Вы не можете прикреплять файлы к сообщениям
Вы не можете скачивать файлы