Swedish House Mafia - Оставь мир за / Swedish House Mafia - Leave the World Behind (Christian Larson) [2014, Великобритания, США, Документальный фильм, музыка, DVDRip] (VO) (Sub Eng)

Ответить на тему
 

timofei32 ®

Стаж: 2 года 3 месяца

Сообщений: 3

Swedish House Mafia - Оставь мир за / Swedish House Mafia - Leave the World Behind
Страна: Великобритания, США
Жанр: Документальный фильм, музыка
Год выпуска: 2014
Продолжительность: 01:35:19
Перевод: Одноголосый закадровый
Cубтитры: английские
Режиссер: Christian Larson
В ролях: Аксвелл (Axwell), Стив Анжелло (Steve Angello) и Себастьян Ингроссо (Sebastian Ingrosso)
Описание: Фильм следует за сенсацией мировой музыкальной сцены Swedish House Mafia во время их «Прощального тура», крупнейшего в истории электронной музыки мирового турне — 1 000 000 билетов был распродан в течение одной лишь недели. Фильм расскажет о решении группы поставить крест на самом большом достижении в их жизни ради спасения их дружбы.
Качество видео: DVDRip
Формат видео: MP4
Видео: 854x364, 610Kbps, 25,000fps
Аудио: 44100 Hz, stereo, 127 kb/s

Скриншоты

MediaInfo

Формат : MPEG-4
Профиль формата : Base Media
Идентификатор кодека : isom
Размер файла : 505 Мбайт
Продолжительность : 1 ч. 35 м.
Общий поток : 740 Кбит/сек
Программа кодирования : Lavf54.59.106
Видео
Идентификатор : 1
Формат : AVC
Формат/Информация : Advanced Video Codec
Профиль формата : [email protected]
Параметр CABAC формата : Да
Параметр ReFrames формата : 4 кадра
Идентификатор кодека : avc1
Идентификатор кодека/Информация : Advanced Video Coding
Продолжительность : 1 ч. 35 м.
Битрейт : 610 Кбит/сек
Ширина : 854 пикселя
Высота : 364 пикселя
Соотношение сторон : 2,35:1
Соотношение сторон в оригинале : 2,35:1
Режим частоты кадров : Постоянный
Частота кадров : 25,000 кадров/сек
Цветовое пространство : YUV
Субдискретизация насыщенности : 4:2:0
Битовая глубина : 8 бит
Тип развёртки : Прогрессивная
Бит/(Пиксели*Кадры) : 0.078
Размер потока : 413 Мбайт (82%)
Библиотека кодирования : x264 core 129
Настройки программы : cabac=1 / ref=3 / deblock=1:0:0 / analyse=0x3:0x113 / me=hex / subme=7 / psy=1 / psy_rd=1.00:0.00 / mixed_ref=1 / me_range=16 / chroma_me=1 / trellis=1 / 8x8dct=1 / cqm=0 / deadzone=21,11 / fast_pskip=1 / chroma_qp_offset=-2 / threads=24 / lookahead_threads=4 / sliced_threads=0 / nr=0 / decimate=1 / interlaced=0 / bluray_compat=0 / constrained_intra=0 / bframes=3 / b_pyramid=2 / b_adapt=1 / b_bias=0 / direct=1 / weightb=1 / open_gop=0 / weightp=2 / keyint=250 / keyint_min=25 / scenecut=40 / intra_refresh=0 / rc_lookahead=40 / rc=abr / mbtree=1 / bitrate=610 / ratetol=1.0 / qcomp=0.60 / qpmin=0 / qpmax=69 / qpstep=4 / ip_ratio=1.40 / aq=1:1.00
Аудио
Идентификатор : 2
Формат : AAC
Формат/Информация : Advanced Audio Codec
Профиль формата : LC
Идентификатор кодека : 40
Продолжительность : 1 ч. 35 м.
Вид битрейта : Постоянный
Битрейт : 128 Кбит/сек
Каналы : 2 канала
Расположение каналов : Front: L R
Частота : 44,1 КГц
Метод сжатия : С потерями
Размер потока : 87,2 Мбайт (17%)


Последний раз редактировалось: timofei32 (2015-05-14 22:49), всего редактировалось 1 раз

Создавать темы 11-Май-2015 13:48

[Профиль]  [ЛС] 

Топик был перенесен из форума Зарубежное кино в форум Фильмы за 2014
Grock

Создавать темы 14-Май-2015 22:49

 
Показать сообщения:    
Ответить на тему

Текущее время: 19-Авг 16:24

Часовой пояс: UTC + 5



Вы не можете начинать темы
Вы не можете отвечать на сообщения
Вы не можете редактировать свои сообщения
Вы не можете удалять свои сообщения
Вы не можете голосовать в опросах
Вы не можете прикреплять файлы к сообщениям
Вы не можете скачивать файлы