Иерихон / Jericho / Сезон: 1-2 / Серии: 1-29 из 29 (Джон Тёртелтауб / Jon Turteltaub) [2006, Драма, фантастика, приключения, WEB-DLRip] (LostFilm)

Ответить на тему
 

PupuseG ®

Стаж: 5 лет 1 месяц

Сообщений: 514

Симпатии: 64

Иерихон / Jericho Год выпуска: 2006-2008
Страна: США
Жанр: Драма, фантастика, приключения
Продолжительность: 43
Перевод: Профессиональный одноголосый закадровый LostFilm (Кравец) сезон 1
Перевод 2: Профессиональный двухголосый закадровый LostFilm сезон 2
Режиссёр: Джон Тёртелтауб / Jon Turteltaub
В ролях: Скит Ульрих, Ленни Джеймс, Эшли Скотт, Кеннет Митчел, Брэд Бейер, Эйприл Паркер, Алисия Коппола, Памела Рид, Роберт Дж. Стефенсон, Джералд МакРэйни
Описание: Ранним солнечным утром, когда ничто не предвещало беды, жители небольшого провинциального американского городка Иерихон в штате Канзас увидели на горизонте медленно, но зловеще растущее атомное облако. Им ещё только предстоит узнать, что в результате террористической ядерной атаки пострадали крупнейшие города 23 американских штатов. Хаос, царящий на улицах некогда спокойного городка, вызван страхом перед неизвестностью - жители Иерихона не знают, что именно произошло, насколько опасен взрыв и есть ли выжившие за пределами их города. Именно этот первобытный страх превращает Иерихон в подобие ада - полностью разрушенные системы связи с внешним миром, угроза радиоактивного заражения, отсутствие запаса продовольствия пугают людей и будят в некоторых гражданах панику, злость, ненависть, порой граничащие с безумием. Но чтобы выжить, жителям Иерихона нужно во что бы то ни стало держаться вместе и научиться жить заново.
Тех. данные Сезон 1:
Качество: WEB-DLRip
Формат: AVI
Видео кодек: XviD
Аудио кодек: MP3
Видео: MPEG4 Video 624x352 23.976 fps, ~1107 Kbps
Аудио: MPEG Audio Layer 3, 44.1 KHz, 2 channels, 128 Kbps
Тех. данные Сезон 2:
Качество: WEB-DLRip
Формат: AVI
Видео кодек: XviD
Аудио кодек: MP3
Видео: MPEG4 Video 576x320 23.976 fps, ~941 Kbps
Аудио: MPEG Audio Layer 3, 48 KHz, 2 channels, 128 Kbps

MediaInfo

Сезон 1

Complete name : D:\Video\Сериалы\Jericho\Jericho 1 - LostFilm.TV\Jericho.s01e01.rus.lostfilm.tv.avi
Format : AVI
Format/Info : Audio Video Interleave
File size : 357 MiB
Duration : 39mn 58s
Overall bit rate : 1 247 Kbps
Writing application : Nandub v1.0rc2
Writing library : Nandub build 1853/release
Video
ID : 0
Format : MPEG-4 Visual
Format profile : Simple@L3
Format settings, BVOP : 2
Format settings, QPel : No
Format settings, GMC : No warppoints
Format settings, Matrix : Default (H.263)
Muxing mode : Packed bitstream
Codec ID : XVID
Codec ID/Hint : XviD
Duration : 39mn 58s
Bit rate : 1 107 Kbps
Width : 624 pixels
Height : 352 pixels
Display aspect ratio : 16:9
Frame rate : 23.976 fps
Color space : YUV
Chroma subsampling : 4:2:0
Bit depth : 8 bits
Scan type : Progressive
Compression mode : Lossy
Bits/(Pixel*Frame) : 0.210
Stream size : 317 MiB (89%)
Writing library : XviD 1.1.0 Beta1 (UTC 2005-01-16)
Audio
ID : 1
Format : MPEG Audio
Format version : Version 1
Format profile : Layer 3
Mode : Joint stereo
Mode extension : MS Stereo
Codec ID : 55
Codec ID/Hint : MP3
Duration : 39mn 58s
Bit rate mode : Constant
Bit rate : 128 Kbps
Channel(s) : 2 channels
Sampling rate : 44.1 KHz
Compression mode : Lossy
Stream size : 36.6 MiB (10%)
Alignment : Aligned on interleaves
Interleave, duration : 26 ms (0.63 video frame)
Interleave, preload duratio : 496 ms

Сезон 2

Complete name : D:\Video\Сериалы\Jericho\Jericho 2 - LostFilm.TV\Jericho.s02e01.rus.LostFilm.TV.avi
Format : AVI
Format/Info : Audio Video Interleave
File size : 340 MiB
Duration : 44mn 0s
Overall bit rate : 1 082 Kbps
Writing application : Nandub v1.0rc2
Writing library : Nandub build 1853/release
Video
ID : 0
Format : MPEG-4 Visual
Format profile : Advanced Simple@L5
Format settings, BVOP : 1
Format settings, QPel : No
Format settings, GMC : No warppoints
Format settings, Matrix : Default (MPEG)
Muxing mode : Packed bitstream
Codec ID : XVID
Codec ID/Hint : XviD
Duration : 44mn 0s
Bit rate : 941 Kbps
Width : 576 pixels
Height : 320 pixels
Display aspect ratio : 16:9
Frame rate : 23.976 fps
Color space : YUV
Chroma subsampling : 4:2:0
Bit depth : 8 bits
Scan type : Progressive
Compression mode : Lossy
Bits/(Pixel*Frame) : 0.213
Stream size : 296 MiB (87%)
Writing library : XviD 1.2.0.dev47 (UTC 2006-11-01)
Audio
ID : 1
Format : MPEG Audio
Format version : Version 1
Format profile : Layer 3
Mode : Joint stereo
Mode extension : MS Stereo
Codec ID : 55
Codec ID/Hint : MP3
Duration : 44mn 0s
Bit rate mode : Constant
Bit rate : 128 Kbps
Channel(s) : 2 channels
Sampling rate : 48.0 KHz
Compression mode : Lossy
Stream size : 40.3 MiB (12%)
Alignment : Aligned on interleaves
Interleave, duration : 24 ms (0.58 video frame)
Interleave, preload duratio : 480 ms

Скриншоты

Сезон 1



Сезон 2



Создавать темы 11-Май-2015 18:09

[Профиль]  [ЛС] 
Показать сообщения:    
Ответить на тему

Текущее время: 22-Ноя 02:25

Часовой пояс: UTC + 5



Вы не можете начинать темы
Вы не можете отвечать на сообщения
Вы не можете редактировать свои сообщения
Вы не можете удалять свои сообщения
Вы не можете голосовать в опросах
Вы не можете прикреплять файлы к сообщениям
Вы не можете скачивать файлы