Снято! / Cut! (Дэвид Раунтри) [2014, США, ужасы, триллер, детектив, DVDRip] (DVO)

Ответить на тему
 

Davron1402 ®

Стаж: 3 года 8 месяцев

Сообщений: 136

Симпатии: 122

Снято! / Cut!- Страна: США
Жанр: ужасы, триллер, детектив
Год выпуска: 2014
Продолжительность: 01:41:44
Перевод: Любительский (двухголосый закадровый)
Cубтитры: нет
Режиссер: Дэвид Раунтри
В ролях: Сэм Скарбер
Далия Салем
Дэвид Бэнкс
Дэвид Раунтри
Гэбриэлль Стоун
Сьюзэн Ланье
Уильям МакНамара
Крис Мойр
Аллен Мальдонадо
Рози Гарсиа

Описание: Бывший заключенный и начинающий режиссер начинают работу над фильмом ужасов, пугая реальных людей. А когда дело заходит слишком далеко и кто-то на самом деле умирает, они решают, что снимать на пленку реальные убийства — это отличный способ сделать по-настоящему страшный фильм…-Доп. информация:
Сценарий: Дэвид Бэнкс, Дэвид Раунтри
Продюсер: Крис Мойр, Дарвин Моралес, Дэвид Бэнкс
Оператор: Эйс Андерхилл
Композитор: Mark McDiffett
Художник: Крис Мойр
Монтаж: Дэвид Раунтри-Качество видео: DVDRip
Формат видео: AVI
Видео: XVID, 720 x 400 (16:9), 23.976 fps, 1 530 Kbps
Аудио: AC-3, 48.0 KHz, 2 channels, 192 Kbps- 

MediaInfo

Имя файла: Snjato.2014.L2.DVDRip.avi
Формат файла: .avi (AVI)
Размер файла: 1.37 GB
Длительность: 1h 41mn
Навигация по главам: Нет
Bitrate (все потоки): 1 928 Kbps
Название: Snjato.2014.L2.DVDRip
Тип потока: Видео
Длительность: 01:41:44
Кодек: MPEG-4 Visual
Кодек/Профиль: Advanced [email protected]
Кодек/ID: XVID
Размеры изображения: 720 x 400 (16:9)
Частота кадров: 23.976 fps
Размер потока: 1.09 GiB (79%)
Битрейт: 1 530 Kbps
Библиотека кодирования: XviD 73
Цветовое пространство: YUV
Тип развёртки: Progressive
Глубина: 8 bits
Тип потока: Звук #1
Длительность: 01:41:44.448
Кодек: AC-3
Кодек/ID: 2000
Частота дискретизации: 48.0 KHz
Каналов: 2 channels
Битрейт: 192 Kbps
Битрейт/тип: Constant
Размер потока: 140 MiB (10%)
Глубина: 16 bits
Метод сжатия: Lossy
Тип потока: Звук #2
Длительность: 01:41:44.433
Кодек: AC-3
Кодек/ID: 2000
Частота дискретизации: 44.1 KHz
Каналов: 2 channels
Битрейт: 192 Kbps
Битрейт/тип: Constant
Размер потока: 140 MiB (10%)
Глубина: 16 bits
Метод сжатия: Lossy

Скриншоты






Последний раз редактировалось: Davron1402 (2015-05-12 02:55), всего редактировалось 1 раз

Создавать темы 12-Май-2015 02:24

[Профиль]  [ЛС] 

axeman

Стаж: 4 года 10 месяцев

Сообщений: 380

Симпатии: 50

Режиссер: Дэвид Раунтри
Сценарий: Дэвид Бэнкс, Дэвид Раунтри
В ролях: Дэвид Бэнкс Дэвид Раунтри

Началось эра киномотографа

Создавать темы 12-Май-2015 22:09

[Профиль]  [ЛС] 
Показать сообщения:    
Ответить на тему

Текущее время: 21-Сен 21:03

Часовой пояс: UTC + 5



Вы не можете начинать темы
Вы не можете отвечать на сообщения
Вы не можете редактировать свои сообщения
Вы не можете удалять свои сообщения
Вы не можете голосовать в опросах
Вы не можете прикреплять файлы к сообщениям
Вы не можете скачивать файлы