Теория большого взрыва / The Big Bang Theory / Сезон: 8 / Серии: 1-24 из 24 (Чак Лорри) [2014, комедия, HDTVRip] VO (Кураж-Бамбей) + Original + Eng Subs

Ответить на тему
 

Zab ®

Стаж: 6 лет 7 месяцев

Сообщений: 476

Симпатии: 424

-Теория большого взрыва | The Big Bang Theory-- Год выпуска: 2014
Страна: США
Жанр: комедия
Продолжительность: ~ 00:22:00-Перевод: Профессиональный (одноголосый закадровый) |Кураж-Бамбей
Режиссёр: Чак Лорри-В ролях: Джонни Галекки, Джим Парсонс, Кейли Куоко, Саймон Хельберг, Кунал Найяр и др.-Описание: Два блестящих физика, Леонард и Шелдон, «великие умы», которые понимают, как «работает вселенная». Но их гениальность ничуть не помогает им общаться с людьми, особенно с женщинами. Всё начинает меняться, когда напротив них поселяется красавица Пенни. Когда Леонард и Шелдон встречают Пенни, Леонард сразу же начинает интересоваться ею. Он видит в общении с Пенни огромную перспективу, вплоть до любви, однако Шелдон понимает, что мечтам его друга не суждено сбыться. Стоит также отметить пару странных друзей этих физиков: Воловиц, который любит употреблять фразы на разных языках, включая русский, и Раджеш Кутрапали, теряющий дар речи при виде женщин.- -Качество: HDTVRip
Формат: AVI
Видео кодек: XviD
Аудио кодек: MP3-Видео: 720x400 (16:9), 23,976 fps, ~1500 kbps, 0.217 bit/pixel
Аудио 1: MP3, 48,0 kHz, 2 ch, 128 kbps - Rus
Аудио 2: MP3, 48,0 kHz, 2 ch, 128 kbps - Eng
Субтитры: Внешние (Язык-английский, формат .SRT)-

MediaInfo

General
Complete name                            : D:\[Movies]\The Big Bang Theory.S08.[Kuraj-Bambey]\The.Big.Bang.Theory.S08.E01.Kuraj-Bambey.avi
Format                                   : AVI
Format/Info                              : Audio Video Interleave
File size                                : 271 MiB
Duration                                 : 21mn 23s
Overall bit rate                         : 1 769 Kbps
Writing application                      : VirtualDubMod 1.5.10.3 | www.virtualdub-fr.org || (build 2550/release)
Writing library                          : VirtualDubMod build 2550/release
Video
ID                                       : 0
Format                                   : MPEG-4 Visual
Format profile                           : Advanced [email protected]
Format settings, BVOP                    : 2
Format settings, QPel                    : No
Format settings, GMC                     : No warppoints
Format settings, Matrix                  : Default (H.263)
Codec ID                                 : XVID
Codec ID/Hint                            : XviD
Duration                                 : 21mn 23s
Bit rate                                 : 1 499 Kbps
Width                                    : 720 pixels
Height                                   : 400 pixels
Display aspect ratio                     : 16:9
Frame rate                               : 23.976 fps
Color space                              : YUV
Chroma subsampling                       : 4:2:0
Bit depth                                : 8 bits
Scan type                                : Progressive
Compression mode                         : Lossy
Bits/(Pixel*Frame)                       : 0.217
Stream size                              : 229 MiB (85%)
Writing library                          : XviD 73
Audio #1
ID                                       : 1
Format                                   : MPEG Audio
Format version                           : Version 1
Format profile                           : Layer 3
Mode                                     : Joint stereo
Mode extension                           : MS Stereo
Codec ID                                 : 55
Codec ID/Hint                            : MP3
Duration                                 : 21mn 23s
Bit rate mode                            : Constant
Bit rate                                 : 128 Kbps
Channel(s)                               : 2 channels
Sampling rate                            : 48.0 KHz
Compression mode                         : Lossy
Stream size                              : 19.6 MiB (7%)
Alignment                                : Aligned on interleaves
Interleave, duration                     : 42 ms (1.00 video frame)
Interleave, preload duration             : 504 ms
Audio #2
ID                                       : 2
Format                                   : MPEG Audio
Format version                           : Version 1
Format profile                           : Layer 3
Codec ID                                 : 55
Codec ID/Hint                            : MP3
Duration                                 : 21mn 23s
Bit rate mode                            : Constant
Bit rate                                 : 128 Kbps
Channel(s)                               : 2 channels
Sampling rate                            : 48.0 KHz
Compression mode                         : Lossy
Stream size                              : 19.6 MiB (7%)
Alignment                                : Aligned on interleaves
Interleave, duration                     : 42 ms (1.00 video frame)
Interleave, preload duration             : 504 ms
Writing library                          : LAME3.99r
Encoding settings                        : -m s -V 4 -q 2 -lowpass 17 -b 128

Скриншоты



Последний раз редактировалось: Zab (2015-05-15 13:33), всего редактировалось 1 раз

Создавать темы 12-Май-2015 03:00

[Профиль]  [ЛС] 

Zab ®

Стаж: 6 лет 7 месяцев

Сообщений: 476

Симпатии: 424

Добавлена 24 - финальная серия сезона! pc

Создавать темы 12-Май-2015 03:32

[Профиль]  [ЛС] 

TimaK

Стаж: 6 лет 6 месяцев

Сообщений: 129

Симпатии: 23

Будет ли 9ый сезон ?

Создавать темы 13-Май-2015 15:44

[Профиль]  [ЛС] 

Zab ®

Стаж: 6 лет 7 месяцев

Сообщений: 476

Симпатии: 424

935891Будет ли 9ый сезон ?
Да будет, исходя из прошлогодних новостей последний девятый!

Создавать темы 13-Май-2015 19:17

[Профиль]  [ЛС] 

AZIZIK

Стаж: 5 лет

Сообщений: 190

Симпатии: 9

Смотрел этот сериал но player.uz вырубили узонлайновцам качаю туту спасибо тебе

Создавать темы 14-Май-2015 14:20

[Профиль]  [ЛС] 

Green_blood

Стаж: 6 лет 11 месяцев

Сообщений: 21

Столько сидеров, а раздачи нет...

Создавать темы 12-Июн-2015 10:28

[Профиль]  [ЛС] 
Показать сообщения:    
Ответить на тему

Текущее время: 23-Ноя 08:52

Часовой пояс: UTC + 5



Вы не можете начинать темы
Вы не можете отвечать на сообщения
Вы не можете редактировать свои сообщения
Вы не можете удалять свои сообщения
Вы не можете голосовать в опросах
Вы не можете прикреплять файлы к сообщениям
Вы не можете скачивать файлы