Форсаж 7 / Furious 7 (Джеймс Ван) [2015, США, Япония, боевик, триллер, криминал, HDTV 720p] Dub (Чистый звук) + Original

Ответить на тему
 

lotto ®

Стаж: 7 лет 10 месяцев

Сообщений: 221

Симпатии: 409

Форсаж 7 / Furious 7
«Месть не знает границ»
-- Страна: США, Япония
Жанр: боевик, триллер, криминал
Год выпуска: 2015
Продолжительность: 02:17:13
Перевод: Профессиональный (дублированный) Чистый звук
Cубтитры: Присутсвуют вшитые неотключаемые корейские субтитры
Оригинальная аудиодорожка: Английский--Режиссер: Джеймс Ван
В ролях: Вин Дизель,Пол Уокер,Дуэйн Джонсон,Мишель Родригес,Джордана Брюстер,Тайриз Гибсон,Лудакрис,Эльза Патаки,Лукас Блэк,Джейсон Стэйтем--Описание: Они покорили Токио и Рио, Лос-Анджелес и Лондон. Но мир больше не играет по их правилам. Зной арабских пустынь, неприлично высокие небоскребы, миллионы долларов на колесах и очень, очень знаменитый злодей. Скорость не знает границ.-- --Качество видео: HDTV
Формат видео: MKV
Видео: H.264, 1280x528, 3800 kb/s, 29.970 fps
Аудио: AC3, 48 KHz, 2 ch, 128 kbps (русский, дублированный)
Аудио 2: AC3, 44.1 KHz, 2 ch, 192 kbps (английский)

MediaInfo

General
Unique ID : 253934114024830091531140952067585532292 (0xBF09EE70E5E154B9B1093AE53416E184)
Complete name : \F0rsaj.7.2015.D.HDTV.720p.mkv
Format : Matroska
Format version : Version 4 / Version 2
File size : 3.92 GiB
Duration : 2h 17mn
Overall bit rate : 4 095 Kbps
Encoded date : UTC 2015-05-10 20:41:43
Writing application : mkvmerge v7.6.0 ('Garden of Dreams') 32bit built on Feb 8 2015 12:51:39
Writing library : libebml v1.3.1 + libmatroska v1.4.2
DURATION : 02:17:12.928000000
NUMBER_OF_FRAMES : 257279
NUMBER_OF_BYTES : 131726848
_STATISTICS_WRITING_APP : mkvmerge v7.6.0 ('Garden of Dreams') 32bit built on Feb 8 2015 12:51:39
_STATISTICS_WRITING_DATE_UTC : 2015-05-10 20:41:43
_STATISTICS_TAGS : BPS DURATION NUMBER_OF_FRAMES NUMBER_OF_BYTES
Video
ID : 1
Format : AVC
Format/Info : Advanced Video Codec
Format profile : [email protected]
Format settings, CABAC : Yes
Format settings, ReFrames : 4 frames
Codec ID : V_MPEG4/ISO/AVC
Duration : 2h 17mn
Bit rate : 3 800 Kbps
Width : 1 280 pixels
Height : 528 pixels
Display aspect ratio : 2.40:1
Frame rate mode : Constant
Frame rate : 29.970 fps
Color space : YUV
Chroma subsampling : 4:2:0
Bit depth : 8 bits
Scan type : Progressive
Bits/(Pixel*Frame) : 0.188
Stream size : 3.54 GiB (90%)
Writing library : x264 core 130 r2273 b3065e6
Encoding settings : cabac=1 / ref=1 / deblock=1:0:0 / analyse=0x3:0x113 / me=hex / subme=2 / psy=1 / psy_rd=1.00:0.00 / mixed_ref=0 / me_range=16 / chroma_me=1 / trellis=0 / 8x8dct=1 / cqm=0 / deadzone=21,11 / fast_pskip=1 / chroma_qp_offset=0 / threads=12 / lookahead_threads=4 / sliced_threads=0 / nr=0 / decimate=1 / interlaced=0 / bluray_compat=0 / constrained_intra=0 / bframes=3 / b_pyramid=2 / b_adapt=1 / b_bias=0 / direct=1 / weightb=1 / open_gop=0 / weightp=1 / keyint=300 / keyint_min=30 / scenecut=40 / intra_refresh=0 / rc_lookahead=10 / rc=abr / mbtree=1 / bitrate=3800 / ratetol=1.0 / qcomp=0.60 / qpmin=0 / qpmax=69 / qpstep=4 / vbv_maxrate=62500 / vbv_bufsize=78125 / nal_hrd=none / ip_ratio=1.40 / aq=1:1.00
Language : English
Default : Yes
Forced : No
Color range : Limited
Color primaries : BT.709
Transfer characteristics : BT.709
Matrix coefficients : BT.709
Audio #1
ID : 2
Format : AC-3
Format/Info : Audio Coding 3
Mode extension : CM (complete main)
Format settings, Endianness : Big
Codec ID : A_AC3
Duration : 2h 17mn
Bit rate mode : Constant
Bit rate : 128 Kbps
Channel(s) : 2 channels
Channel positions : Front: L R
Sampling rate : 48.0 KHz
Compression mode : Lossy
Stream size : 126 MiB (3%)
Language : Russian
Default : Yes
Forced : No
Audio #2
ID : 3
Format : AC-3
Format/Info : Audio Coding 3
Mode extension : CM (complete main)
Format settings, Endianness : Big
Codec ID : A_AC3
Duration : 2h 17mn
Bit rate mode : Constant
Bit rate : 192 Kbps
Channel(s) : 2 channels
Channel positions : Front: L R
Sampling rate : 44.1 KHz
Compression mode : Lossy
Stream size : 188 MiB (5%)
Default : No
Forced : No

Скриншот c названием фильма

Скриншоты



Последний раз редактировалось: lotto (2015-05-13 10:49), всего редактировалось 1 раз

Создавать темы 13-Май-2015 10:44

[Профиль]  [ЛС] 

abuz85

Стаж: 8 лет 10 месяцев

Сообщений: 109

Симпатии: 80

935858Cубтитры: нет
Точно?

Создавать темы 13-Май-2015 10:45

[Профиль]  [ЛС] 

Mixer City

Стаж: 6 лет 11 месяцев

Сообщений: 754

Симпатии: 63

abuz85, не точно, исправлено!

Создавать темы 13-Май-2015 10:50

[Профиль]  [ЛС] 

lotto ®

Стаж: 7 лет 10 месяцев

Сообщений: 221

Симпатии: 409

Mixer City,
Не успел отредактировать, спасибо!

Создавать темы 13-Май-2015 10:53

[Профиль]  [ЛС] 

Mixer City

Стаж: 6 лет 11 месяцев

Сообщений: 754

Симпатии: 63

lotto, не вопрос ;)

Создавать темы 13-Май-2015 13:32

[Профиль]  [ЛС] 
Показать сообщения:    
Ответить на тему

Текущее время: 24-Ноя 18:02

Часовой пояс: UTC + 5



Вы не можете начинать темы
Вы не можете отвечать на сообщения
Вы не можете редактировать свои сообщения
Вы не можете удалять свои сообщения
Вы не можете голосовать в опросах
Вы не можете прикреплять файлы к сообщениям
Вы не можете скачивать файлы