Давай знакомиться: Фильм / Hello Ladies: The Movie (Стивен Мерчант / Stephen Merchant) [2014, США, комедия, HDTVRip] [Amedia]

Ответить на тему
 

Каротажник ®

Стаж: 4 года 1 месяц

Сообщений: 195

Симпатии: 211

Давай знакомиться: Фильм / Hello Ladies: The Movie Страна: США
Жанр: комедия
Год выпуска: 2014--Продолжительность: 01:17:05
Перевод: Профессиональный многоголосый [Amedia]--Режиссер: Стивен Мерчант / Stephen Merchant
В ролях: Стивен Мерчант, Кристин Вудс, Ванесса Энджел, Карли Крэйг, Майкл Хайатт, Кевин Уайзман, Криста Флэнеган, Нейт Торренс, Джонни 5, Стефани Корнелиуссен--Описание: Стюарт — благополучный, но слегка закомплексованный мужчина в самом расцвете сил. Он недавно расстался со своей подругой и переехал в Лос Анджелес. Когда его бывшая приезжает к нему в гости, он решает сделать все, чтобы произвести впечатление сверхуспешного человека: хвастается знакомствами со знаменитостями и достает приглашения на самые элитные вечеринки…-- 
--Качество видео: HDTVRip
Формат видео: AVI--Видео: Xvid 720x400 25fps 2144kbps
Аудио: AC3 48000Hz 6ch 384kbps

MediaInfo

Format : AVI
Format/Info : Audio Video Interleave
File size : 1.37 GiB
Duration : 1h 17mn
Overall bit rate : 2 538 Kbps
Writing application : VirtualDubMod 1.5.10.2 (build 2540/release)
Writing library : VirtualDubMod build 2540/release
Video
ID : 0
Format : MPEG-4 Visual
Format profile : Advanced [email protected]
Format settings, BVOP : Yes
Format settings, QPel : No
Format settings, GMC : No warppoints
Format settings, Matrix : Default (MPEG)
Codec ID : XVID
Codec ID/Hint : XviD
Duration : 1h 17mn
Bit rate : 2 145 Kbps
Width : 720 pixels
Height : 400 pixels
Display aspect ratio : 16:9
Frame rate : 25.000 fps
Color space : YUV
Chroma subsampling : 4:2:0
Bit depth : 8 bits
Scan type : Progressive
Compression mode : Lossy
Bits/(Pixel*Frame) : 0.298
Stream size : 1.15 GiB (84%)
Writing library : XviD 1.2.1 (UTC 2008-12-04)
Audio
ID : 1
Format : AC-3
Format/Info : Audio Coding 3
Mode extension : CM (complete main)
Format settings, Endianness : Big
Codec ID : 2000
Duration : 1h 17mn
Bit rate mode : Constant
Bit rate : 384 Kbps
Channel(s) : 6 channels
Channel positions : Front: L C R, Side: L R, LFE
Sampling rate : 48.0 KHz
Bit depth : 16 bits
Compression mode : Lossy
Stream size : 212 MiB (15%)
Alignment : Split accross interleaves
Interleave, duration : 40 ms (1.00 video frame)
Interleave, preload duration : 500 ms

Скриншоты




Последний раз редактировалось: Каротажник (2015-05-14 10:02), всего редактировалось 1 раз

Создавать темы 14-Май-2015 04:19

[Профиль]  [ЛС] 

Davron1402

Стаж: 3 года 10 месяцев

Сообщений: 136

Симпатии: 122

https://tas-ix.net/viewtopic.php?t=103139 Хороший фильм

Создавать темы 14-Май-2015 06:47

[Профиль]  [ЛС] 

DoDiK_DoDa

Стаж: 5 лет 4 месяца

Сообщений: 35

Симпатии: 36

Перевод: рофессиональный многоголосый [Amedia]
может все таки Профессиональный?

Создавать темы 14-Май-2015 07:38

[Профиль]  [ЛС] 
Показать сообщения:    
Ответить на тему

Текущее время: 20-Ноя 08:43

Часовой пояс: UTC + 5



Вы не можете начинать темы
Вы не можете отвечать на сообщения
Вы не можете редактировать свои сообщения
Вы не можете удалять свои сообщения
Вы не можете голосовать в опросах
Вы не можете прикреплять файлы к сообщениям
Вы не можете скачивать файлы