Вечный зов (Владимир Краснопольский, Валерий Усков) [1973-1983, Драма, киноэпопея, SATRip]

Ответить на тему
 

фазилов ®

Стаж: 3 года 8 месяцев

Сообщений: 310

Симпатии: 344

ВЕЧНЫЙ ЗОВ (19 серий из 19)
Жанр: Драма, киноэпопея
Год выпуска: 1973-1983
Продолжительность: 22:09:30

(01:05:15 + 01:10:57 + 01:16:27 + 01:05:51 + 01:04:11 + 01:17:45 + 01:05:17 + 01:09:40 + 01:04:07 + 01:06:28 + 01:08:15 + 01:19:57 + 01:04:43 + 01:05:58 + 01:06:22 + 01:08:52 + 01:04:20 + 01:23:30 + 01:21:48)


Режиссёры: Владимир Краснопольский, Валерий Усков
В ролях: Валерий Хлевинский, Вадим Спиридонов, Николай Иванов, Пётр Вельяминов, Иван Лапиков, Владлен Бирюков, Ада Роговцева, Тамара Сёмина, Андрей Мартынов, Николай Ерёменко старший, Ефим Копелян, Олег Басилашвили, Наталья Кустинская, Юрий Смирнов, Николай Дупак, Манефа Соболевская, Владимир Земляникин, Николай Лебедев, , Екатерина Жемчужная, Владимир Козел, Валерий Плотников, Елена Драпеко, Любовь Виролайнен, Евгений Карельских, Леонид Харитонов, Василий Мищенко, Владимир Заманский, Борис Битюков, Виктор Шульгин, Михаил Кокшенов

Описание: История семьи Савельевых, выходцев из далекого сибирского села, разворачивается на фоне исторических событий в России, охватывающих период с 1906 по 1960 годы. На долю семьи выпали три войны, революция, становление нового строя и все драматические события, которые принес двадцатый век. Жизнь постоянно требует от героев выбора между любовью и ненавистью. В центре повествования – три брата Савельевых: старший - Антон, средний - Фёдор и младший - Иван.

Доп. информация: По одноимённому роману Анатолия Иванова.
Сценарий: Анатолий Иванов, Константин Исаев
Композитор: Леонид Афанасьев
В начале файла присутствует 10-секундный ролик RG Doc.Films с указанием автора рипа.

Качество видео: SATRip
Формат видео: AVI
Видео: 640x480 (1.33:1), 25 fps, XviD build 50 ~1300 kbps avg, 0.17 bit/pixel
Аудио: 48 kHz, MPEG Layer 3, 2 ch, ~192.00 kbps avg

MediaInfo

eneral
Complete name : D:\Мои релизы\ВЕЧНЫЙ ЗОВ\Культура_Вечный Зов_1_01_Старший Брат.avi
Format : AVI
Format/Info : Audio Video Interleave
File size : 695 MiB
Duration : 1h 5mn
Overall bit rate : 1 490 Kbps
Writing application : VirtualDubMod 1.5.10.2 (build 2540/release)
Comment : Rip by iriston
Video
ID : 0
Format : MPEG-4 Visual
Format profile : Advanced [email protected]
Format settings, BVOP : 1
Format settings, QPel : No
Format settings, GMC : No warppoints
Format settings, Matrix : Custom
Codec ID : XVID
Codec ID/Hint : XviD
Duration : 1h 5mn
Bit rate : 1 288 Kbps
Width : 640 pixels
Height : 480 pixels
Display aspect ratio : 4:3
Frame rate : 25.000 fps
Color space : YUV
Chroma subsampling : 4:2:0
Bit depth : 8 bits
Scan type : Progressive
Compression mode : Lossy
Bits/(Pixel*Frame) : 0.168
Stream size : 601 MiB (86%)
Writing library : XviD 1.2.1 (UTC 2008-12-04)
Audio
ID : 1
Format : MPEG Audio
Format version : Version 1
Format profile : Layer 3
Codec ID : 55
Codec ID/Hint : MP3
Duration : 1h 5mn
Bit rate mode : Constant
Bit rate : 192 Kbps
Channel(s) : 2 channels
Sampling rate : 48.0 KHz
Compression mode : Lossy
Stream size : 89.6 MiB (13%)
Alignment : Aligned on interleaves
Interleave, duration : 40 ms (1.00 video frame)
Interleave, preload duration : 504 ms
Writing library : LAME3.98r
Encoding settings : -m s -V 4 -q 2 -lowpass 18.6 -b 192

Скриншот c названием фильма

Скриншоты

Создавать темы 14-Май-2015 12:18

[Профиль]  [ЛС] 

фазилов ®

Стаж: 3 года 8 месяцев

Сообщений: 310

Симпатии: 344

aa

Создавать темы 18-Май-2015 19:34

[Профиль]  [ЛС] 
Показать сообщения:    
Ответить на тему

Текущее время: 22-Окт 16:41

Часовой пояс: UTC + 5



Вы не можете начинать темы
Вы не можете отвечать на сообщения
Вы не можете редактировать свои сообщения
Вы не можете удалять свои сообщения
Вы не можете голосовать в опросах
Вы не можете прикреплять файлы к сообщениям
Вы не можете скачивать файлы